<?xml version="1.0" standalone="no"?>
<!DOCTYPE svg PUBLIC "-//W3C//DTD SVG 1.1//EN" "http://www.w3.org/Graphics/SVG/1.1/DTD/svg11.dtd" >
<svg xmlns="http://www.w3.org/2000/svg" xmlns:xlink="http://www.w3.org/1999/xlink" version="1.1">
<metadata></metadata>
<defs>
<font id="futurabold" horiz-adv-x="1229" >
<font-face units-per-em="2048" ascent="1584" descent="-464" />
<missing-glyph horiz-adv-x="512" />
<glyph unicode="&#xfb01;" horiz-adv-x="1218" d="M22 655v273h117v140q0 116 23 185t81 131q130 138 310 138q72 0 145 -34v-286q-69 33 -115 33q-32 0 -62.5 -18t-41.5 -43q-12 -29 -12 -129v-117h231v-273h-231v-655h-328v655h-117zM758 1287q0 74 54.5 128t129.5 54q77 0 131 -54t54 -130q0 -77 -54 -131t-130 -54 q-78 0 -131 54q-54 55 -54 133zM778 0v928h328v-928h-328z" />
<glyph unicode="&#xfb02;" horiz-adv-x="1218" d="M22 655v273h117v140q0 116 23 185t81 131q130 138 310 138q72 0 145 -34v-286q-69 33 -115 33q-32 0 -62.5 -18t-41.5 -43q-12 -29 -12 -129v-117h231v-273h-231v-655h-328v655h-117zM778 0v1502h328v-1502h-328z" />
<glyph unicode="&#xfb03;" horiz-adv-x="1857" d="M22 655v273h117v140q0 116 23 185t81 131q130 138 310 138q71 0 145 -34v-286q-70 33 -115 33q-32 0 -62.5 -18t-41.5 -43q-12 -29 -12 -129v-117h135v-273h-135v-655h-328v655h-117zM661 655v273h117v140q0 116 23 185t81 131q130 138 310 138q72 0 145 -34v-286 q-69 33 -115 33q-32 0 -62.5 -18t-41.5 -43q-12 -30 -12 -129v-117h231v-273h-231v-655h-328v655h-117zM1397 1287q0 74 54.5 128t129.5 54q77 0 131 -54t54 -130q0 -77 -54 -131t-130 -54q-77 0 -131 54q-54 55 -54 133zM1417 0v928h328v-928h-328z" />
<glyph horiz-adv-x="0" />
<glyph horiz-adv-x="682" />
<glyph unicode=" "  horiz-adv-x="512" />
<glyph unicode="&#x09;" horiz-adv-x="512" />
<glyph unicode="&#xa0;" horiz-adv-x="512" />
<glyph unicode="!" horiz-adv-x="696" d="M137 177q0 86 62.5 148t148.5 62q88 0 150 -62t62 -150t-62 -151q-62 -62 -149 -62q-89 0 -150 62q-62 63 -62 153zM178 464v901h341v-901h-341z" />
<glyph unicode="&#x22;" horiz-adv-x="840" d="M84 1365h291l-49 -549h-193zM465 1365h292l-50 -549h-193z" />
<glyph unicode="#" d="M32 374v236h217l23 174h-186v235h215l46 346h267l-46 -346h176l45 346h270l-46 -346h185v-235h-214l-23 -174h188v-236h-217l-50 -374h-270l50 374h-176l-49 -374h-267l50 374h-188zM516 610h176l22 174h-176z" />
<glyph unicode="$" d="M117 158l148 273q168 -151 330 -151q71 0 119.5 38t48.5 93q0 44 -38 75q-28 23 -51 32t-133 44q-155 47 -239 117q-107 90 -107 258q0 107 46.5 203t128.5 154q76 55 194 68v219h168v-219q191 -19 329 -105l-134 -261q-118 88 -230 88q-65 0 -110 -30t-45 -74 q0 -39 39 -72q29 -24 53 -34.5t141 -49.5q156 -53 242 -133q96 -88 96 -251q0 -170 -96 -283q-79 -95 -285 -154v-227h-168v216q-123 6 -248 52t-199 114z" />
<glyph unicode="%" horiz-adv-x="1834" d="M68 1052q0 142 99 234q101 94 283 94q177 0 277 -107q88 -94 88 -224q0 -159 -121 -261q-92 -77 -257 -77q-181 0 -282 106q-87 89 -87 235zM288 1048q0 -65 44.5 -110t109.5 -45q63 0 108 45t45 109q0 63 -45 108t-109 45q-62 0 -107.5 -44.5t-45.5 -107.5zM431 0 l792 1365h178l-793 -1365h-177zM1018 325q0 142 99 234q102 94 283 94q177 0 277 -107q88 -94 88 -224q0 -159 -121 -261q-92 -77 -257 -77q-181 0 -282 106q-87 90 -87 235zM1238 321q0 -65 45 -110t109 -45q63 0 108 45t45 109q0 63 -45 108t-109 45q-63 0 -108 -44.5 t-45 -107.5z" />
<glyph unicode="&#x26;" horiz-adv-x="1548" d="M82 354q0 180 134 292q44 37 192 104q-55 69 -72 96q-55 82 -55 184q0 92 49 177q115 196 376 196q201 0 318 -119q108 -109 108 -253q0 -148 -116 -244q-46 -37 -136 -85l171 -180q108 99 178 194l201 -193q-60 -79 -187 -200l305 -323h-442l-119 125 q-246 -163 -470 -163q-126 0 -234 55q-104 53 -158 156q-43 81 -43 181zM449 410q0 -56 45 -93t113 -37q93 0 186 59l-215 232q-129 -81 -129 -161zM617 1048q0 -66 108 -180q126 77 126 169q0 54 -34 89.5t-86 35.5q-58 0 -89 -41q-25 -34 -25 -73z" />
<glyph unicode="'" horiz-adv-x="459" d="M84 1365h291l-49 -549h-193z" />
<glyph unicode="(" horiz-adv-x="692" d="M137 611q0 266 69.5 517t192.5 430l198 -112q-209 -358 -209 -848q0 -242 57 -476t152 -380l-198 -112q-114 165 -167 342q-95 313 -95 639z" />
<glyph unicode=")" horiz-adv-x="692" d="M96 -258q209 358 209 848q0 242 -57 475.5t-152 379.5l198 113q114 -165 167 -342q95 -314 95 -639q0 -266 -69.5 -517t-192.5 -430z" />
<glyph unicode="*" d="M290 1207l50 154l225 -107l-31 248h162l-32 -247l226 106l50 -154l-245 -46l171 -182l-131 -95l-119 219l-121 -219l-131 95l171 181z" />
<glyph unicode="+" d="M130 567v232h369v368h232v-368h368v-232h-368v-369h-232v369h-369z" />
<glyph unicode="," horiz-adv-x="621" d="M-18 -254l235 601h308l-333 -601h-210z" />
<glyph unicode="-" horiz-adv-x="519" d="M0 348v273h519v-273h-519z" />
<glyph unicode="." horiz-adv-x="621" d="M99 177q0 86 62.5 148t148.5 62q88 0 150 -62t62 -150t-62 -151q-62 -62 -149 -62q-89 0 -150 62q-62 63 -62 153z" />
<glyph unicode="/" horiz-adv-x="1014" d="M-2 -314l745 1816h260l-746 -1816h-259z" />
<glyph unicode="0" d="M36 693q0 321 155 513q170 211 424 211q257 0 424 -211q155 -195 155 -523q0 -169 -37.5 -296t-117.5 -228q-167 -211 -423 -211q-259 0 -425 211q-81 103 -115 219q-40 138 -40 315zM388 684q0 -188 63 -309q26 -52 72 -84t92 -32t92 32.5t72 83.5q63 122 63 305 q0 186 -63 305q-27 51 -72.5 83t-91.5 32t-92 -32t-72 -83q-63 -122 -63 -301z" />
<glyph unicode="1" d="M285 1065v300h549v-1365h-355v1065h-194z" />
<glyph unicode="2" d="M53 0l347 363q172 179 284 346q83 124 83 235q0 74 -46.5 125.5t-112.5 51.5q-65 0 -105.5 -46.5t-40.5 -120.5q0 -20 6 -57h-391q1 141 71 273q67 127 189 191q118 62 269 62q240 0 387 -144q142 -139 142 -348q0 -119 -48.5 -218.5t-154.5 -198.5l-230 -214h447v-300 h-1096z" />
<glyph unicode="3" d="M54 437h363q4 -70 33 -112q52 -79 161 -79q93 0 143 63q42 52 42 117q0 93 -76 148q-50 36 -111 36q-26 0 -62 -11v242q27 -2 40 -2q73 0 113 47q39 45 39 105t-39.5 98t-100.5 38q-66 0 -104 -41t-41 -115h-328q16 135 68 224q64 108 174 163q119 60 261 60 q201 0 323 -111q117 -107 117 -283q0 -98 -35 -167t-110 -118q81 -26 128 -81q96 -112 96 -268q0 -147 -85 -258q-74 -97 -198 -146q-120 -47 -252 -47q-331 0 -488 267q-68 115 -71 231z" />
<glyph unicode="4" d="M23 280v229l525 856h464v-812h166v-273h-166v-280h-328v280h-661zM363 553h321v526z" />
<glyph unicode="5" d="M94 80l53 332q188 -158 373 -158q115 0 180 78q47 55 47 127q0 116 -109 181q-79 48 -195 48q-129 0 -259 -57l119 734h710v-300h-472l-25 -151q63 9 110 9q206 0 341 -128q146 -140 146 -351q0 -139 -69 -252q-144 -236 -504 -236q-247 0 -446 124z" />
<glyph unicode="6" d="M36 446q0 116 55 254.5t151 264.5l305 400h403l-389 -464q107 42 192 42q186 0 313 -135q128 -137 128 -343q0 -257 -196 -405q-155 -115 -390 -115q-279 0 -431 156q-141 145 -141 345zM381 450q0 -93 66 -159t160 -66t159 66q66 67 66 157q0 96 -66 161q-67 66 -159 66 q-94 0 -160 -66t-66 -159z" />
<glyph unicode="7" d="M91 0l623 1065h-570v300h1120l-783 -1365h-390z" />
<glyph unicode="8" d="M93 369q0 164 121 268q51 44 150 82q-84 35 -129 84q-86 91 -86 217q0 84 42 163q117 219 425 219q111 0 206.5 -33.5t155.5 -94.5q102 -103 102 -255q0 -144 -96 -225q-42 -34 -127 -75q107 -42 161 -90q118 -105 118 -260q0 -195 -181 -312q-142 -92 -339 -92 q-146 0 -276 57q-129 57 -197 162q-50 79 -50 185zM451 413q0 -69 47.5 -117t116.5 -48q67 0 115 48t48 116t-48 115.5t-116 47.5t-115 -48q-48 -48 -48 -114zM464 1016q0 -63 44 -107.5t107 -44.5q62 0 106 44t44 106t-44 106t-107 44q-61 0 -105.5 -44t-44.5 -104z" />
<glyph unicode="9" d="M36 899q0 258 196 405q154 116 390 116q279 0 431 -156q141 -145 141 -345q0 -116 -55 -254.5t-151 -264.5l-305 -400h-403l389 464q-106 -43 -192 -43q-186 0 -313 136q-128 136 -128 342zM399 918q0 -95 66 -162q65 -66 160 -66q93 0 159 66t66 160t-66 159 q-68 66 -160 66q-93 0 -159 -66q-66 -67 -66 -157z" />
<glyph unicode=":" horiz-adv-x="621" d="M99 177q0 86 62.5 148t148.5 62q88 0 150 -62t62 -150t-62 -151q-62 -62 -149 -62q-89 0 -150 62q-62 63 -62 153zM99 787q0 86 62.5 147.5t148.5 61.5q88 0 150 -62t62 -149q0 -88 -62 -150t-149 -62q-89 0 -150 62q-62 63 -62 152z" />
<glyph unicode=";" horiz-adv-x="621" d="M-19 -254l235 601h308l-333 -601h-210zM147 787q0 86 62.5 147.5t148.5 61.5q88 0 150 -62t62 -149q0 -88 -62 -150t-149 -62q-89 0 -150 62q-62 63 -62 152z" />
<glyph unicode="&#x3c;" horiz-adv-x="1024" d="M68 532v322l887 492v-386l-478 -268l476 -270l2 -382z" />
<glyph unicode="=" d="M130 386v232h969v-232h-969zM130 748v232h969v-232h-969z" />
<glyph unicode="&#x3e;" horiz-adv-x="1024" d="M68 40v385l478 269l-476 269l-2 383l887 -493v-322z" />
<glyph unicode="?" horiz-adv-x="1120" d="M68 979q3 147 91 254q67 82 178 127q106 43 222 43q205 0 340 -127q65 -61 102 -141t37 -161q0 -85 -39 -164t-107 -130t-182 -91v-130h-333v353q43 -10 73 -10q101 0 169 52t68 129q0 57 -39 95.5t-96 38.5t-89 -36t-34 -102h-361zM341 176q0 86 62 147.5t149 61.5 q88 0 150 -62q62 -61 62 -149t-62 -150t-149 -62q-89 0 -150 62q-62 62 -62 152z" />
<glyph unicode="@" horiz-adv-x="1409" d="M-19 678q0 203 100 372q95 159 260 254q178 102 392 102q211 0 381 -100q145 -84 227 -221q86 -143 86 -309q0 -165 -85 -302q-68 -111 -175 -160q-69 -32 -135 -32q-100 0 -156 88q-92 -91 -216 -91q-143 0 -237 108q-93 106 -93 266q0 179 116 291q102 99 251 99 q54 0 93.5 -12.5t95.5 -46.5l12 43h189l-55 -451q-5 -43 -5 -88q0 -35 22 -35t44 11q58 28 94 84q64 100 64 224q0 204 -150 337q-148 132 -367 132q-238 0 -400 -164q-159 -162 -159 -397q0 -222 140 -379q157 -177 434 -177q185 0 322 64l65 31l12 5q23 12 32 16l65 -165 l-36 -18l-48 -22q-179 -85 -410 -85q-238 0 -411 99q-160 91 -256 252q-103 173 -103 377zM537 647q0 -77 37 -126t96 -49q80 0 136 65q60 70 60 155q0 69 -45.5 113.5t-115.5 44.5q-73 0 -120.5 -57t-47.5 -146z" />
<glyph unicode="A" horiz-adv-x="1454" d="M14 0l525 1365h387l514 -1365h-379l-88 238h-490l-94 -238h-375zM581 508h296l-147 435z" />
<glyph unicode="B" horiz-adv-x="1266" d="M143 0v1365h528q191 0 287 -95q97 -95 97 -261q0 -103 -35 -168.5t-115 -111.5q132 -27 190 -86q88 -90 88 -256q0 -165 -111 -269q-125 -118 -360 -118h-569zM498 276h79q118 0 175 25q33 15 52.5 47.5t19.5 72.5q0 83 -68 118q-30 16 -64.5 20.5t-120.5 4.5h-73v-288z M498 828h65q85 0 126 37t41 96q0 65 -42.5 99t-124.5 34h-65v-266z" />
<glyph unicode="C" horiz-adv-x="1208" d="M82 671q0 214 106 384q100 162 277 254q162 85 340 85q146 0 321 -69v-425q-122 150 -307 150q-162 0 -270 -114q-96 -100 -96 -262q0 -175 120 -276q108 -91 245 -91q172 0 308 143v-420q-126 -42 -185 -54.5t-133 -12.5q-188 0 -361 95q-184 101 -278 269 q-87 153 -87 344z" />
<glyph unicode="D" horiz-adv-x="1423" d="M143 0v1365h524q256 0 449 -181q110 -102 169 -240q55 -129 55 -261q0 -194 -110 -366q-110 -171 -288 -255q-132 -62 -275 -62h-524zM498 300h81q100 0 169 27t122 87q99 111 99 269q0 157 -99 268q-53 60 -122 87t-169 27h-81v-765z" />
<glyph unicode="E" horiz-adv-x="1002" d="M143 0v1365h777v-300h-422v-228h399v-300h-399v-237h422v-300h-777z" />
<glyph unicode="F" horiz-adv-x="994" d="M143 0v1365h782v-300h-427v-228h389v-300h-389v-537h-355z" />
<glyph unicode="G" horiz-adv-x="1593" d="M81 675q0 203 91 375q94 180 268 270q172 89 383 89q217 0 367.5 -94t247.5 -290l-337 -139q-93 216 -295 216q-157 0 -255 -125q-99 -125 -99 -302q0 -201 122 -331q92 -98 243 -98q153 0 231 100q37 47 50 136h-291v276h704q-4 -273 -71 -420q-85 -187 -246 -286 q-162 -100 -384 -100q-223 0 -400 102q-173 100 -258 288q-71 155 -71 333z" />
<glyph unicode="H" horiz-adv-x="1509" d="M143 0v1365h355v-527h512v527h355v-1365h-355v562h-512v-562h-355z" />
<glyph unicode="I" horiz-adv-x="642" d="M143 0v1365h355v-1365h-355z" />
<glyph unicode="J" horiz-adv-x="959" d="M14 165l232 237q7 -61 38.5 -97t77.5 -36q100 0 100 157l-1 76v863h355v-944q0 -140 -35 -213q-61 -124 -186 -191q-102 -54 -225 -54q-219 0 -356 202z" />
<glyph unicode="K" horiz-adv-x="1433" d="M143 0v1365h355v-563l433 563h438l-542 -646l592 -719h-460l-461 592v-592h-355z" />
<glyph unicode="L" horiz-adv-x="963" d="M143 0v1365h355v-1065h426v-300h-781z" />
<glyph unicode="M" horiz-adv-x="1875" d="M82 0l232 1365h350l277 -728l293 728h353l206 -1365h-355l-101 786l-330 -786h-141l-315 786l-116 -786h-353z" />
<glyph unicode="N" horiz-adv-x="1649" d="M143 0v1365h355l653 -835v835h355v-1365h-355l-653 836v-836h-355z" />
<glyph unicode="O" horiz-adv-x="1675" d="M82 691q0 191 99 356q111 186 293 277q165 82 363 82q342 0 559 -229q197 -207 197 -498q0 -200 -99 -369q-106 -182 -293 -277q-162 -82 -370 -82q-337 0 -552 228q-197 208 -197 512zM454 683q0 -162 113 -276q111 -112 271 -112q159 0 272 112q112 113 112 272 q0 161 -112 271q-116 112 -273 112q-159 0 -270 -112q-113 -114 -113 -267z" />
<glyph unicode="P" horiz-adv-x="1227" d="M143 0v1365h565q119 0 196.5 -26t143.5 -88q134 -126 134 -339q0 -207 -110 -331q-112 -127 -352 -127h-222v-454h-355zM498 739h118q103 0 145 39q50 46 50 130q0 172 -194 172h-119v-341z" />
<glyph unicode="Q" horiz-adv-x="1675" d="M82 680q0 172 81 330q103 199 291 302q165 91 382 91q211 0 387 -91q188 -98 290 -295q80 -154 80 -339q0 -136 -41 -248t-137 -235l231 -234l-326 -50l-109 128q-86 -48 -166 -67.5t-188 -19.5q-392 0 -602 257q-173 210 -173 471zM453 670q0 -169 121 -277 q108 -97 261 -97q53 0 111 17l-218 218l335 41l94 -101q65 96 65 206q0 151 -111 266q-112 116 -274 116t-276 -117q-108 -111 -108 -272z" />
<glyph unicode="R" horiz-adv-x="1284" d="M143 0v1365h552q115 0 195 -29t140 -91q117 -124 117 -302q0 -90 -33.5 -171t-90.5 -132q-64 -55 -174 -80l429 -560h-442l-338 524v-524h-355zM498 754h66q101 0 152 36q28 21 47 58.5t19 74.5q0 36 -19 74t-47 59q-50 36 -152 36h-66v-338z" />
<glyph unicode="S" horiz-adv-x="1170" d="M82 119l152 286q159 -139 313 -139q94 0 137 49q34 39 34 85q0 55 -44.5 87.5t-169.5 69.5q-196 57 -259 110q-109 89 -109 271q0 213 141 342q128 118 324 118q222 0 433 -111l-142 -276q-115 92 -232 92q-75 0 -117 -41q-35 -35 -35 -79q0 -39 32 -66q31 -25 62.5 -38 t151.5 -48q168 -50 249 -136q86 -93 86 -247q0 -235 -140 -356q-150 -128 -394 -128q-251 0 -473 155z" />
<glyph unicode="T" horiz-adv-x="965" d="M14 1065v300h938v-300h-294v-1065h-355v1065h-289z" />
<glyph unicode="U" horiz-adv-x="1477" d="M143 578v787h355v-739q0 -117 6.5 -159t32.5 -85q61 -104 198 -104q67 0 123.5 30t84.5 81q22 40 29 85t7 152v739h355v-787q0 -196 -52 -301q-79 -160 -236 -242q-135 -70 -316 -70q-206 0 -357 89q-127 74 -178.5 192t-51.5 332z" />
<glyph unicode="V" horiz-adv-x="1432" d="M0 1365h386l329 -830l332 830h385l-582 -1365h-276z" />
<glyph unicode="W" horiz-adv-x="2076" d="M0 1365h371l237 -882l289 882h282l269 -882l258 882h370l-436 -1365h-362l-249 791l-261 -791h-361z" />
<glyph unicode="X" horiz-adv-x="1455" d="M0 0l534 728l-437 637h437l203 -354l212 354h436l-445 -637l515 -728h-428l-292 444l-306 -444h-429z" />
<glyph unicode="Y" horiz-adv-x="1311" d="M-25 1365h424l258 -372l248 372h430l-511 -709v-656h-355v656z" />
<glyph unicode="Z" horiz-adv-x="1293" d="M27 0l646 1065h-537v300h1129l-643 -1065h573v-300h-1168z" />
<glyph unicode="[" horiz-adv-x="689" d="M164 -314v1816h444v-191h-185v-1432h185v-193h-444z" />
<glyph unicode="\" horiz-adv-x="1014" d="M12 1502h260l745 -1816h-259z" />
<glyph unicode="]" horiz-adv-x="689" d="M82 -123h184v1432h-184v193h443v-1816h-443v191z" />
<glyph unicode="^" horiz-adv-x="1024" d="M13 691l285 684h429l285 -684h-338l-161 423l-162 -423h-338z" />
<glyph unicode="_" horiz-adv-x="1024" d="M0 -99h1024v-226h-1024v226z" />
<glyph unicode="`" horiz-adv-x="1024" d="M197 1344l208 149l259 -316l-152 -112z" />
<glyph unicode="a" horiz-adv-x="1270" d="M75 466q0 237 165 379q131 113 301 113q90 0 159 -29t130 -92v91h328v-928h-328v103q-106 -133 -286 -133q-117 0 -224 59q-117 66 -182 181q-63 112 -63 256zM416 467q0 -89 62 -152q61 -62 150 -62q88 0 150 62t62 149q0 89 -62 149q-64 62 -150 62q-88 0 -150 -62 t-62 -146z" />
<glyph unicode="b" horiz-adv-x="1270" d="M112 0v1502h328v-665q53 55 103 79q86 42 186 42q204 0 343 -154q123 -136 123 -338q0 -235 -161 -377q-135 -119 -308 -119q-180 0 -286 133v-103h-328zM430 464q0 -87 62 -149t151 -62q88 0 149 62q62 63 62 147q0 90 -62 151q-63 62 -150 62t-150 -62 q-62 -62 -62 -149z" />
<glyph unicode="c" horiz-adv-x="887" d="M75 456q0 230 166 375q143 126 350 126q119 0 221 -52v-279q-86 60 -170 60q-105 0 -172 -73q-54 -60 -54 -152q0 -100 66 -161q67 -62 160 -62q91 0 170 61v-278q-114 -52 -230 -52q-144 0 -270 75q-237 140 -237 412z" />
<glyph unicode="d" horiz-adv-x="1270" d="M75 466q0 237 165 379q131 113 301 113q90 0 159 -29t130 -92v665h328v-1502h-328v103q-106 -133 -286 -133q-117 0 -224 59q-117 66 -182 181q-63 112 -63 256zM416 467q0 -89 62 -152q61 -62 150 -62q88 0 150 62t62 149q0 89 -62 149q-64 62 -150 62q-88 0 -150 -62 t-62 -146z" />
<glyph unicode="e" horiz-adv-x="1172" d="M75 457q0 150 70 273q127 224 446 224q220 0 350 -117q83 -75 119 -176t36 -257h-690q3 -209 200 -209q59 0 94.5 19.5t66.5 68.5h316q-30 -104 -83 -165q-65 -77 -167 -115q-107 -40 -227 -40q-256 0 -402 150q-129 133 -129 344zM415 594h376q-17 69 -67.5 108.5 t-123.5 39.5q-75 0 -123.5 -39t-61.5 -109z" />
<glyph unicode="f" horiz-adv-x="708" d="M22 655v273h117v140q0 116 23 185t81 131q130 138 310 138q72 0 145 -34v-286q-69 33 -115 33q-32 0 -62.5 -18t-41.5 -43q-12 -29 -12 -129v-117h231v-273h-231v-655h-328v655h-117z" />
<glyph unicode="g" horiz-adv-x="1263" d="M75 450q0 228 145 371q135 133 327 133q89 0 153.5 -28.5t122.5 -94.5v97h328v-864q0 -190 -47 -278q-74 -139 -222 -204q-114 -50 -271 -50q-272 0 -425 162q-82 87 -100 193h369q33 -93 156 -93q99 0 155.5 59t56.5 162v88q-73 -68 -137.5 -95t-154.5 -27 q-228 0 -359 166q-97 123 -97 303zM416 469q0 -90 62 -152q61 -62 150 -62q87 0 149 62t62 150q0 89 -62 149q-63 62 -150 62q-88 0 -149 -62q-62 -62 -62 -147z" />
<glyph unicode="h" horiz-adv-x="1203" d="M112 0v1502h328v-691q57 66 105 93q79 45 192 45q169 0 268 -102q59 -60 75 -131q11 -50 11 -125v-591h-328v470q0 107 -20 146q-16 33 -52.5 52.5t-78.5 19.5q-86 0 -137 -62q-35 -43 -35 -129v-497h-328z" />
<glyph unicode="i" horiz-adv-x="552" d="M91 1287q0 74 54.5 128t129.5 54q77 0 131 -54t54 -130q0 -77 -54 -131t-130 -54q-78 0 -131 54q-54 55 -54 133zM111 0v928h328v-928h-328z" />
<glyph unicode="j" horiz-adv-x="552" d="M91 1287q0 74 54.5 128t129.5 54q77 0 131 -54t54 -130q0 -77 -54 -131t-130 -54q-78 0 -131 54q-54 55 -54 133zM111 -464v1392h328v-1392h-328z" />
<glyph unicode="k" horiz-adv-x="1264" d="M112 0v1502h328v-908l343 334h450l-465 -428l493 -500h-460l-361 378v-378h-328z" />
<glyph unicode="l" horiz-adv-x="552" d="M112 0v1502h328v-1502h-328z" />
<glyph unicode="m" horiz-adv-x="1795" d="M112 0v928h328v-114q73 70 141 99.5t159 29.5q109 0 184 -41.5t132 -131.5q108 174 313 174q82 0 153 -33.5t110 -91.5q51 -75 51 -216v-603h-328v459q0 71 -3 95.5t-14 52.5q-34 81 -120 81q-41 0 -78.5 -24t-55.5 -61q-23 -50 -23 -144v-459h-328v459q0 110 -14 146 q-14 39 -50.5 64t-77.5 25q-38 0 -75 -22.5t-54 -55.5q-22 -45 -22 -157v-459h-328z" />
<glyph unicode="n" horiz-adv-x="1203" d="M112 0v928h328v-117q57 66 105 93q78 44 192 44q170 0 268 -102q48 -49 67 -105t19 -150v-591h-328v470q0 107 -20 145q-16 33 -52.5 52.5t-78.5 19.5q-86 0 -137 -62q-35 -43 -35 -128v-497h-328z" />
<glyph unicode="o" horiz-adv-x="1267" d="M75 472q0 215 168 361q84 72 208 105q92 24 182 24q276 0 431 -168q128 -138 128 -330q0 -226 -168 -370q-150 -129 -396 -129q-156 0 -292 67q-127 63 -199 192q-62 109 -62 248zM422 469q0 -91 62 -154q61 -62 150 -62q87 0 149 62q62 63 62 151q0 90 -62 151 q-63 62 -150 62q-88 0 -149 -62q-62 -63 -62 -148z" />
<glyph unicode="p" horiz-adv-x="1270" d="M112 -464v1392h328v-103q106 133 286 133q117 0 223 -59q118 -66 183 -181q63 -112 63 -256q0 -237 -165 -379q-131 -113 -301 -113q-90 0 -159 29t-130 92v-555h-328zM430 464q0 -88 62 -150t151 -62q88 0 149 62q62 63 62 147q0 91 -62 152q-63 62 -150 62 q-88 0 -150 -62t-62 -149z" />
<glyph unicode="q" horiz-adv-x="1270" d="M75 462q0 235 161 377q135 119 308 119q180 0 286 -133v103h328v-1392h-328v555q-53 -55 -103 -79q-86 -42 -186 -42q-204 0 -343 154q-123 136 -123 338zM416 466q0 -89 62 -152q61 -62 150 -62q88 0 150 62t62 150q0 89 -62 149q-64 62 -150 62q-89 0 -150 -62 q-62 -63 -62 -147z" />
<glyph unicode="r" horiz-adv-x="842" d="M112 0v928h328v-152q57 88 128 126.5t177 38.5q25 0 63 -3v-313q-68 33 -140 33q-114 0 -171 -65.5t-57 -195.5v-397h-328z" />
<glyph unicode="s" horiz-adv-x="922" d="M55 72l119 232q141 -94 261 -94q46 0 74.5 20.5t28.5 52.5q0 33 -27.5 50t-112.5 34q-117 25 -176 64q-96 64 -96 194q0 145 103 239q107 97 310 97q156 0 301 -60l-111 -212q-93 45 -179 45q-44 0 -72 -18.5t-28 -47.5q0 -31 27.5 -45.5t119.5 -33.5q270 -54 270 -275 q0 -172 -136 -267q-117 -82 -305 -82q-191 0 -371 107z" />
<glyph unicode="t" horiz-adv-x="675" d="M42 655v273h108v279h328v-279h187v-273h-187v-655h-328v655h-108z" />
<glyph unicode="u" horiz-adv-x="1212" d="M112 339v589h328v-526q0 -172 167 -172q166 0 166 172v526h328v-589q0 -167 -103 -261q-130 -118 -391 -118q-262 0 -392 118q-103 94 -103 261z" />
<glyph unicode="v" horiz-adv-x="1181" d="M0 928h369l222 -476l223 476h367l-483 -928h-219z" />
<glyph unicode="w" horiz-adv-x="1857" d="M0 928h366l222 -489l233 489h206l232 -503l233 503h365l-486 -928h-219l-232 509l-222 -509h-221z" />
<glyph unicode="x" horiz-adv-x="1344" d="M0 0l464 504l-377 424h427l160 -191l163 191h426l-384 -424l465 -504h-434l-239 276l-238 -276h-433z" />
<glyph unicode="y" horiz-adv-x="1246" d="M0 928h381l248 -476l241 476h376l-745 -1392h-368l315 591z" />
<glyph unicode="z" horiz-adv-x="1067" d="M41 0l438 655h-379v273h926l-435 -655h391v-273h-941z" />
<glyph unicode="{" horiz-adv-x="785" d="M165 493v222q61 13 86 48q27 38 27 108v343q0 172 75 238q36 31 80.5 44t118.5 13l151 -5v-231h-37q-76 0 -99 -18q-17 -13 -22 -34.5t-5 -89.5v-279q0 -103 -25 -155.5t-98 -102.5q48 -32 70.5 -58.5t36.5 -68.5q16 -53 16 -132v-278q0 -70 5.5 -92.5t24.5 -34.5 q24 -16 95 -16q12 0 38 1v-232q-50 -1 -133 -4h-23q-141 0 -206 68q-63 66 -63 227v342q0 85 -25.5 124.5t-87.5 52.5z" />
<glyph unicode="|" horiz-adv-x="1024" d="M317 -341v1706h391v-1706h-391z" />
<glyph unicode="}" horiz-adv-x="785" d="M83 -85q26 -1 37 -1q75 0 98 18q17 13 22 35t5 90v279q0 103 25 155.5t98 102.5q-48 31 -70.5 58t-36.5 69q-16 52 -16 132v278q0 70 -5.5 92.5t-24.5 34.5q-24 16 -94 16q-12 0 -38 -1v231q49 2 132 5h23q141 0 206 -69q63 -66 63 -226v-342q0 -85 25.5 -125t88.5 -52 v-222q-62 -13 -87 -48q-12 -18 -19.5 -47t-7.5 -61v-343q0 -172 -75 -238q-36 -31 -80.5 -44t-117.5 -13l-151 5v231z" />
<glyph unicode="~" horiz-adv-x="1365" d="M184 1243q10 22 41 91q85 193 269 193q68 0 212 -54q92 -34 119 -41.5t58 -7.5q51 0 81.5 22t66.5 84l149 -86q-45 -95 -76 -139t-74 -75q-81 -58 -174 -58q-54 0 -209 56q-129 46 -168 46q-52 0 -92 -35q-21 -19 -59 -91z" />
<glyph unicode="&#xa1;" horiz-adv-x="696" d="M137 883q0 86 62.5 147.5t148.5 61.5q88 0 150 -62t62 -149q0 -88 -62 -150t-149 -62q-89 0 -150 62q-62 63 -62 152zM178 -314v901h341v-901h-341z" />
<glyph unicode="&#xa2;" d="M248 686q0 194 124 330q120 132 334 161v168h167v-180q50 -11 106 -31v-294q-80 69 -165 69q-97 0 -162 -67q-60 -64 -60 -158q0 -106 76 -168q64 -52 145 -52q96 0 166 70v-295q-62 -23 -106 -28v-192h-167v179q-184 11 -316 143q-142 142 -142 345z" />
<glyph unicode="&#xa3;" d="M41 0q34 138 92 207q91 109 218 114q18 37 18 68q0 68 -37 136h-270v173h149q-53 95 -53 215q0 186 122 321q79 88 180 121q107 35 239 35q236 0 352 -106q137 -125 137 -407h-358q8 42 8 64q0 73 -51 122t-117 49q-74 0 -121.5 -54t-47.5 -140q0 -58 10.5 -97.5 t47.5 -122.5h307v-173h-256q9 -65 9 -114q0 -52 -18 -111q160 -47 204 -57.5t86 -10.5q86 0 90 89h220q-6 -91 -37 -160q-40 -89 -99 -132q-79 -58 -203 -58q-46 0 -87.5 8.5t-155.5 42.5q-154 45 -229 45q-92 0 -115 -67h-234z" />
<glyph unicode="&#xa4;" horiz-adv-x="1365" d="M40 1268l145 145l213 -213q138 89 286 89q147 0 281 -87l211 209l144 -144l-209 -209q93 -146 93 -285q0 -144 -89 -280l211 -211l-143 -144l-210 210q-138 -92 -291 -92q-141 0 -287 91l-210 -209l-143 143l210 211q-89 131 -89 281q0 147 91 282zM406 772 q0 -115 81 -197q82 -82 197 -82t197 82q81 82 81 198q0 117 -82 197q-83 82 -193 82q-118 0 -200 -82q-81 -81 -81 -198z" />
<glyph unicode="&#xa5;" d="M7 1365h404l206 -392l196 392h409l-300 -476h198v-214h-333l-12 -19v-109h345v-214h-345v-333h-337v333h-329v214h329v109l-11 19h-318v214h187z" />
<glyph unicode="&#xa6;" horiz-adv-x="1024" d="M317 314h391v-655h-391v655zM317 625v740h391v-740h-391z" />
<glyph unicode="&#xa7;" d="M176 598q0 126 63 218q36 51 135 107q-94 68 -121 134q-25 62 -25 127q0 138 95 231q104 101 288 101q122 0 221.5 -46t143.5 -122q45 -79 50 -215h-285q-4 54 -13 76q-30 76 -109 76q-48 0 -81.5 -31.5t-33.5 -75.5q0 -47 39.5 -78t165.5 -83q117 -48 169 -77.5 t94 -71.5q96 -96 96 -239q0 -107 -46.5 -182.5t-162.5 -154.5q95 -62 124 -125q31 -65 31 -137q0 -140 -100 -241q-114 -116 -304 -116q-180 0 -290 103q-61 57 -86.5 122t-30.5 176h291q1 -58 10 -83q30 -81 117 -81q53 0 89.5 35.5t36.5 87.5q0 65 -53 103q-41 29 -154 66 q-112 37 -166 65t-97 71q-101 99 -101 260zM471 605q0 -62 44 -105.5t105 -43.5q62 0 105.5 43.5t43.5 105.5q0 61 -43.5 105t-103.5 44q-64 0 -107.5 -43.5t-43.5 -105.5z" />
<glyph unicode="&#xa8;" horiz-adv-x="1024" d="M103 1252q0 72 52.5 123.5t124.5 51.5q74 0 126 -52t52 -125q0 -74 -52 -126t-125 -52q-75 0 -126.5 52.5t-51.5 127.5zM567 1252q0 72 52.5 123.5t124.5 51.5q74 0 126 -51.5t52 -125.5t-52 -126t-125 -52q-75 0 -126.5 52.5t-51.5 127.5z" />
<glyph unicode="&#xa9;" horiz-adv-x="1556" d="M68 682q0 203 105 375q103 170 286 262q151 77 331 77q190 0 360 -105q170 -106 260 -284q78 -154 78 -325q0 -201 -104 -372t-281 -262q-152 -79 -323 -79q-199 0 -369 103q-172 105 -264 285q-79 154 -79 325zM210 682q0 -244 169 -415q167 -170 400 -170q160 0 298 87 q135 87 208 234q61 124 61 264q0 165 -84 307q-81 138 -224 215q-120 64 -250 64q-242 0 -409 -169q-169 -171 -169 -417zM366 678q0 126 66 228q62 97 172 153q101 50 211 50q92 0 212 -44v-292q-37 41 -43 48q-64 61 -159 61q-86 0 -143 -55q-59 -55 -59 -149 q0 -86 53 -139q61 -60 149 -60q86 0 154 56q8 7 48 45v-286q-134 -42 -210 -42q-117 0 -224 57q-114 60 -173 161q-54 92 -54 208z" />
<glyph unicode="&#xaa;" horiz-adv-x="743" d="M45 1078q0 139 96 222q76 65 176 65q102 0 169 -70v53h192v-542h-192v59q-61 -77 -167 -77q-119 0 -202 91q-72 78 -72 199zM64 580v123h620v-123h-620zM244 1078q0 -52 36 -88.5t88 -36.5q51 0 87 36.5t36 87.5t-36 87t-88 36q-50 0 -86.5 -36t-36.5 -86z" />
<glyph unicode="&#xab;" horiz-adv-x="1087" d="M57 467l311 444l181 -124l-228 -320l234 -315l-187 -131zM508 467l311 444l181 -124l-228 -320l233 -315l-186 -131z" />
<glyph unicode="&#xac;" horiz-adv-x="1024" d="M68 270v340h887v-610h-378v270h-509z" />
<glyph unicode="&#xad;" horiz-adv-x="519" d="M0 348v273h519v-273h-519z" />
<glyph unicode="&#xae;" horiz-adv-x="1556" d="M68 682q0 203 105 375q103 170 286 262q151 77 331 77q190 0 360 -105q170 -106 260 -284q78 -154 78 -325q0 -201 -104 -372t-281 -262q-152 -79 -323 -79q-199 0 -369 103q-172 105 -264 285q-79 154 -79 325zM210 682q0 -244 169 -415q167 -170 400 -170q160 0 298 87 q135 87 208 234q61 124 61 264q0 165 -84 307q-81 138 -224 215q-120 64 -250 64q-242 0 -409 -169q-169 -171 -169 -417zM418 273v819h356q142 0 216 -74q77 -76 77 -185q0 -87 -44 -145.5t-129 -84.5l270 -330h-310l-189 274v-274h-247zM665 737h28q57 0 86 19 q35 24 35 66q0 40 -32 62t-89 22h-28v-169z" />
<glyph unicode="&#xaf;" horiz-adv-x="1024" d="M154 1106v201h717v-201h-717z" />
<glyph unicode="&#xb0;" d="M341 1116q0 110 80 189q81 80 193 80q113 0 193 -80t80 -193t-80 -193t-193 -80q-114 0 -193 80q-80 81 -80 197zM483 1114q0 -55 38 -93.5t93 -38.5q54 0 92 38t38 92q0 55 -38 93t-92 38t-92.5 -38t-38.5 -91z" />
<glyph unicode="&#xb1;" d="M130 0v232h969v-232h-969zM130 655v232h369v369h232v-369h368v-232h-368v-327h-232v327h-369z" />
<glyph unicode="&#xb2;" horiz-adv-x="819" d="M63 546l216 226q215 224 215 338q0 40 -25.5 68.5t-61.5 28.5t-57.5 -25.5t-21.5 -66.5q0 -12 4 -40h-245q0 56 14 103q35 113 117 169q79 52 187 52q144 0 233 -87q86 -84 86 -210q0 -138 -122 -251l-123 -114h254v-191h-670z" />
<glyph unicode="&#xb3;" horiz-adv-x="819" d="M72 818h227q6 -112 109 -112q44 0 73 27.5t29 70.5q0 42 -30.5 71.5t-73.5 29.5q-16 0 -43 -8v159q20 -2 30 -2q37 0 59.5 22.5t22.5 60.5q0 31 -21 51.5t-54 20.5q-77 0 -78 -91h-208q10 87 42 142q38 65 105 99q71 36 157 36q121 0 195 -67q71 -65 71 -172 q0 -112 -76 -165q54 -21 88 -78.5t34 -128.5q0 -142 -117 -217q-86 -56 -205 -56q-199 0 -293 161q-42 71 -43 146z" />
<glyph unicode="&#xb4;" horiz-adv-x="1024" d="M361 1177l259 316l208 -149l-315 -279z" />
<glyph unicode="&#xb5;" horiz-adv-x="1212" d="M112 -464v1392h328v-530q0 -59 17 -91q43 -77 150 -77q166 0 166 172v526h328v-589q0 -170 -103 -260q-134 -119 -369 -119q-117 0 -216 35l27 -459h-328z" />
<glyph unicode="&#xb6;" d="M-10 1005q0 118 57 204q70 105 218 137q90 19 197 19h683v-202h-150v-1351h-223v1351h-170v-1351h-223v845h-26q-65 0 -131.5 21.5t-112.5 57.5q-119 93 -119 269z" />
<glyph unicode="&#xb7;" horiz-adv-x="621" d="M99 487q0 86 62.5 147.5t148.5 61.5q88 0 150 -62t62 -149q0 -88 -62 -150q-61 -62 -149 -62q-89 0 -150 62q-62 63 -62 152z" />
<glyph unicode="&#xb8;" horiz-adv-x="1024" d="M381 -396l240 293l187 -122l-279 -264z" />
<glyph unicode="&#xb9;" horiz-adv-x="819" d="M209 1174v191h338v-819h-223v628h-115z" />
<glyph unicode="&#xba;" horiz-adv-x="740" d="M44 1081q0 126 98 211q88 76 228 76q161 0 252 -98q75 -81 75 -194q0 -131 -98 -216q-88 -75 -232 -75q-158 0 -248 98q-75 81 -75 198zM60 580v123h620v-123h-620zM246 1078q0 -52 36.5 -88.5t88.5 -36.5q51 0 87.5 36t36.5 88q0 51 -36.5 87t-88.5 36q-51 0 -87.5 -36 t-36.5 -86z" />
<glyph unicode="&#xbb;" horiz-adv-x="1087" d="M82 152l233 315l-228 320l182 124l311 -444l-311 -446zM533 152l233 315l-228 320l181 124l311 -444l-311 -446z" />
<glyph unicode="&#xbc;" horiz-adv-x="1994" d="M208 1174v191h338v-819h-223v628h-115zM511 0l792 1365h177l-792 -1365h-177zM1227 165v144l313 510h285v-479h98v-175h-98v-165h-208v165h-390zM1447 340h170v279z" />
<glyph unicode="&#xbd;" horiz-adv-x="1993" d="M208 1174v191h338v-819h-223v628h-115zM511 0l792 1365h177l-792 -1365h-177zM1235 0l216 226q110 115 162.5 197t52.5 140q0 40 -25.5 68.5t-61.5 28.5q-35 0 -57 -25.5t-22 -66.5q0 -12 4 -40h-245q0 56 15 104q34 113 117 169q78 52 187 52q144 0 232 -87 q86 -85 86 -211q0 -138 -121 -250l-123 -114h253v-191h-670z" />
<glyph unicode="&#xbe;" horiz-adv-x="1994" d="M72 818h227q6 -112 109 -112q44 0 73 27.5t29 70.5q0 42 -30.5 71.5t-73.5 29.5q-16 0 -43 -8v159q20 -2 30 -2q37 0 59.5 22.5t22.5 60.5q0 31 -21 51.5t-54 20.5q-77 0 -78 -91h-208q10 87 42 142q38 65 105 99q71 36 157 36q121 0 195 -67q71 -65 71 -172 q0 -112 -76 -165q54 -21 88 -78.5t34 -128.5q0 -142 -117 -217q-86 -56 -205 -56q-199 0 -293 161q-42 71 -43 146zM511 0l792 1365h178l-792 -1365h-178zM1227 165v144l313 510h285v-479h99v-175h-99v-165h-208v165h-390zM1447 340h170v279z" />
<glyph unicode="&#xbf;" horiz-adv-x="1117" d="M81 79q0 86 39 165t106 130q68 51 182 91v130h332v-353q-43 10 -73 10q-101 0 -168.5 -52t-67.5 -129q0 -57 38.5 -95.5t96.5 -38.5q56 0 88 36.5t34 101.5h361q-3 -147 -91 -255q-67 -82 -178 -127q-105 -43 -221 -43q-205 0 -340 127q-65 61 -101.5 141t-36.5 161z M354 880q0 90 62 150q64 62 149 62q88 0 150 -62t62 -152q0 -86 -62.5 -147.5t-148.5 -61.5q-88 0 -150 62t-62 149z" />
<glyph unicode="&#xc0;" horiz-adv-x="1454" d="M14 0l525 1365h387l514 -1365h-379l-88 238h-490l-94 -238h-375zM402 1712l190 173l296 -282l-138 -128zM581 508h296l-147 435z" />
<glyph unicode="&#xc1;" horiz-adv-x="1454" d="M14 0l525 1365h387l514 -1365h-379l-88 238h-490l-94 -238h-375zM580 1603l296 282l190 -173l-348 -237zM581 508h296l-147 435z" />
<glyph unicode="&#xc2;" horiz-adv-x="1454" d="M14 0l525 1365h387l514 -1365h-379l-88 238h-490l-94 -238h-375zM310 1630l417 246l417 -246l-98 -155l-319 160l-319 -160zM581 508h296l-147 435z" />
<glyph unicode="&#xc3;" horiz-adv-x="1454" d="M14 0l525 1365h387l514 -1365h-379l-88 238h-490l-94 -238h-375zM327 1509q1 96 28 158q27 61 80 96q57 36 121 36q56 0 188 -42q88 -29 128 -29q59 0 79 74h177q-13 -118 -37 -167q-64 -126 -216 -126q-72 0 -169 35q-103 37 -139 37q-30 0 -44 -14.5t-25 -57.5h-171z M581 508h296l-147 435z" />
<glyph unicode="&#xc4;" horiz-adv-x="1454" d="M14 0l525 1365h387l514 -1365h-379l-88 238h-490l-94 -238h-375zM304 1675q0 72 52.5 123.5t124.5 51.5q74 0 126 -52t52 -125q0 -74 -52 -126t-125 -52q-75 0 -126.5 52.5t-51.5 127.5zM581 508h296l-147 435zM796 1675q0 72 52.5 123.5t124.5 51.5q74 0 126 -52 t52 -125q0 -74 -52 -126t-125 -52q-75 0 -126.5 52.5t-51.5 127.5z" />
<glyph unicode="&#xc5;" horiz-adv-x="1454" d="M14 0l525 1365h387l514 -1365h-379l-88 238h-490l-94 -238h-375zM446 1682q0 85 59 140q73 70 215 70h14q143 0 216 -70q59 -55 59 -142t-59 -142q-73 -70 -216 -70h-14q-142 0 -215 70q-59 55 -59 144zM581 508h296l-147 435zM622 1681q0 -37 28 -58t76 -21 q50 0 78.5 21t28.5 57q0 37 -28.5 57.5t-78.5 20.5q-47 0 -75.5 -21t-28.5 -56z" />
<glyph unicode="&#xc6;" horiz-adv-x="1892" d="M14 0l526 1365h836l110 -300h-449l84 -228h448l113 -300h-450l89 -237h448l109 -300h-823l-89 240h-493l-85 -240h-374zM571 509h301l-148 405z" />
<glyph unicode="&#xc7;" horiz-adv-x="1208" d="M82 671q0 214 106 384q100 162 277 254q162 85 340 85q146 0 321 -69v-425q-122 150 -307 150q-162 0 -270 -114q-96 -100 -96 -262q0 -175 120 -276q108 -91 245 -91q172 0 308 143v-420q-126 -42 -185 -54.5t-133 -12.5q-188 0 -361 95q-184 101 -278 269 q-87 153 -87 344zM479 -401l240 307l202 -142l-283 -276z" />
<glyph unicode="&#xc8;" horiz-adv-x="1002" d="M143 0v1365h777v-300h-422v-228h399v-300h-399v-237h422v-300h-777zM244 1712l190 173l296 -282l-138 -128z" />
<glyph unicode="&#xc9;" horiz-adv-x="1002" d="M143 0v1365h777v-300h-422v-228h399v-300h-399v-237h422v-300h-777zM367 1603l296 282l190 -173l-348 -237z" />
<glyph unicode="&#xca;" horiz-adv-x="1002" d="M115 1630l417 246l417 -246l-98 -155l-319 160l-319 -160zM143 0v1365h777v-300h-422v-228h399v-300h-399v-237h422v-300h-777z" />
<glyph unicode="&#xcb;" horiz-adv-x="1002" d="M116 1675q0 72 52.5 123.5t124.5 51.5q74 0 126 -52t52 -125q0 -74 -52 -126t-125 -52q-75 0 -126.5 52.5t-51.5 127.5zM143 0v1365h777v-300h-422v-228h399v-300h-399v-237h422v-300h-777zM593 1675q0 72 52.5 123.5t124.5 51.5q74 0 126 -52t52 -125q0 -74 -52 -126 t-125 -52q-75 0 -126.5 52.5t-51.5 127.5z" />
<glyph unicode="&#xcc;" horiz-adv-x="642" d="M-11 1712l190 173l296 -282l-138 -128zM143 0v1365h355v-1365h-355z" />
<glyph unicode="&#xcd;" horiz-adv-x="642" d="M143 0v1365h355v-1365h-355zM166 1603l296 282l190 -173l-348 -237z" />
<glyph unicode="&#xce;" horiz-adv-x="642" d="M-69 1630l390 246l389 -246l-98 -155l-291 160l-292 -160zM143 0v1365h355v-1365h-355z" />
<glyph unicode="&#xcf;" horiz-adv-x="642" d="M-68 1675q0 72 52.5 123.5t124.5 51.5q74 0 126 -52t52 -125q0 -74 -52 -126t-125 -52q-75 0 -126.5 52.5t-51.5 127.5zM144 0v1365h355v-1365h-355zM355 1675q0 72 52.5 123.5t124.5 51.5q74 0 126 -52t52 -125q0 -74 -52 -126t-125 -52q-75 0 -126.5 52.5t-51.5 127.5z " />
<glyph unicode="&#xd0;" horiz-adv-x="1423" d="M20 587v232h123v546h524q256 0 449 -181q110 -102 169 -240q55 -129 55 -261q0 -193 -110 -366q-109 -171 -288 -255q-132 -62 -275 -62h-524v587h-123zM498 300h82q99 0 168 27t122 87q99 111 99 269q0 157 -99 268q-53 60 -122 87t-168 27h-82v-246h232v-232h-232v-287 z" />
<glyph unicode="&#xd1;" horiz-adv-x="1649" d="M143 0v1365h355l653 -835v835h355v-1365h-355l-653 836v-836h-355zM438 1509q1 96 28 158q26 61 80 96q56 36 121 36q56 0 187 -42q89 -29 129 -29q59 0 79 74h177q-13 -118 -38 -167q-63 -126 -215 -126q-73 0 -169 35q-103 37 -139 37q-31 0 -44.5 -14.5t-24.5 -57.5 h-171z" />
<glyph unicode="&#xd2;" horiz-adv-x="1675" d="M82 691q0 191 99 356q111 186 293 277q165 82 363 82q342 0 559 -229q197 -207 197 -498q0 -200 -99 -369q-106 -182 -293 -277q-162 -82 -370 -82q-337 0 -552 228q-197 208 -197 512zM454 683q0 -162 113 -276q111 -112 271 -112q159 0 272 112q112 113 112 272 q0 161 -112 271q-116 112 -273 112q-159 0 -270 -112q-113 -114 -113 -267zM526 1712l190 173l297 -282l-138 -128z" />
<glyph unicode="&#xd3;" horiz-adv-x="1675" d="M82 691q0 191 99 356q111 186 293 277q165 82 363 82q342 0 559 -229q197 -207 197 -498q0 -200 -99 -369q-106 -182 -293 -277q-162 -82 -370 -82q-337 0 -552 228q-197 208 -197 512zM454 683q0 -162 113 -276q111 -112 271 -112q159 0 272 112q112 113 112 272 q0 161 -112 271q-116 112 -273 112q-159 0 -270 -112q-113 -114 -113 -267zM676 1603l297 282l190 -173l-348 -237z" />
<glyph unicode="&#xd4;" horiz-adv-x="1675" d="M82 691q0 191 99 356q111 186 293 277q165 82 363 82q342 0 559 -229q197 -207 197 -498q0 -200 -99 -369q-106 -182 -293 -277q-162 -82 -370 -82q-337 0 -552 228q-197 208 -197 512zM421 1630l417 246l417 -246l-98 -155l-319 160l-319 -160zM454 683q0 -162 113 -276 q111 -112 271 -112q159 0 272 112q112 113 112 272q0 161 -112 271q-116 112 -273 112q-159 0 -270 -112q-113 -114 -113 -267z" />
<glyph unicode="&#xd5;" horiz-adv-x="1675" d="M82 691q0 191 99 356q111 186 293 277q165 82 363 82q342 0 559 -229q197 -207 197 -498q0 -200 -99 -369q-106 -182 -293 -277q-162 -82 -370 -82q-337 0 -552 228q-197 208 -197 512zM451 1509q1 96 28 158q27 61 81 96q56 36 121 36q56 0 187 -42q89 -29 128 -29 q59 0 79 74h178q-13 -118 -38 -167q-64 -126 -216 -126q-72 0 -169 35q-103 37 -139 37q-30 0 -44 -14.5t-25 -57.5h-171zM454 683q0 -162 113 -276q111 -112 271 -112q159 0 272 112q112 113 112 272q0 161 -112 271q-116 112 -273 112q-159 0 -270 -112 q-113 -114 -113 -267z" />
<glyph unicode="&#xd6;" horiz-adv-x="1675" d="M82 691q0 191 99 356q111 186 293 277q165 82 363 82q342 0 559 -229q197 -207 197 -498q0 -200 -99 -369q-106 -182 -293 -277q-162 -82 -370 -82q-337 0 -552 228q-197 208 -197 512zM415 1675q0 72 52.5 123.5t124.5 51.5q74 0 126 -52t52 -125q0 -74 -52 -126 t-125 -52q-75 0 -126.5 52.5t-51.5 127.5zM454 683q0 -162 113 -276q111 -112 271 -112q159 0 272 112q112 113 112 272q0 161 -112 271q-116 112 -273 112q-159 0 -270 -112q-113 -114 -113 -267zM906 1675q0 72 52.5 123.5t124.5 51.5q74 0 126 -52t52 -125 q0 -74 -52 -126t-125 -52q-75 0 -126.5 52.5t-51.5 127.5z" />
<glyph unicode="&#xd7;" d="M190 422l261 261l-261 260l164 164l261 -260l261 260l164 -164l-261 -260l261 -261l-164 -164l-261 261l-261 -261z" />
<glyph unicode="&#xd8;" horiz-adv-x="1675" d="M55 85l168 161q-60 89 -90 160q-51 123 -51 264q0 183 82 343q98 192 279 295q172 97 391 97q188 0 345 -66q55 -24 125 -79l173 167l140 -148l-166 -162q144 -211 144 -434q0 -204 -100 -374q-106 -181 -294 -276q-163 -82 -359 -82q-255 0 -474 148l-172 -162zM454 684 q0 -102 45 -181l528 504q-84 54 -193 54q-172 0 -286 -133q-94 -110 -94 -244zM636 345q113 -50 197 -50q172 0 287 123q103 108 103 254q0 87 -48 190z" />
<glyph unicode="&#xd9;" horiz-adv-x="1477" d="M143 578v787h355v-739q0 -117 6.5 -159t32.5 -85q61 -104 198 -104q67 0 123.5 30t84.5 81q22 40 29 85t7 152v739h355v-787q0 -196 -52 -301q-79 -160 -236 -242q-135 -70 -316 -70q-206 0 -357 89q-127 74 -178.5 192t-51.5 332zM400 1712l190 173l296 -282l-138 -128z " />
<glyph unicode="&#xda;" horiz-adv-x="1477" d="M143 578v787h355v-739q0 -117 6.5 -159t32.5 -85q61 -104 198 -104q67 0 123.5 30t84.5 81q22 40 29 85t7 152v739h355v-787q0 -196 -52 -301q-79 -160 -236 -242q-135 -70 -316 -70q-206 0 -357 89q-127 74 -178.5 192t-51.5 332zM591 1603l296 282l190 -173l-348 -237z " />
<glyph unicode="&#xdb;" horiz-adv-x="1477" d="M143 578v787h355v-739q0 -117 6.5 -159t32.5 -85q61 -104 198 -104q67 0 123.5 30t84.5 81q22 40 29 85t7 152v739h355v-787q0 -196 -52 -301q-79 -160 -236 -242q-135 -70 -316 -70q-206 0 -357 89q-127 74 -178.5 192t-51.5 332zM322 1630l416 246l417 -246l-98 -155 l-319 160l-318 -160z" />
<glyph unicode="&#xdc;" horiz-adv-x="1477" d="M143 578v787h355v-739q0 -117 6.5 -159t32.5 -85q61 -104 198 -104q67 0 123.5 30t84.5 81q22 40 29 85t7 152v739h355v-787q0 -196 -52 -301q-79 -160 -236 -242q-135 -70 -316 -70q-206 0 -357 89q-127 74 -178.5 192t-51.5 332zM315 1675q0 72 52.5 123.5t124.5 51.5 q74 0 126 -52t52 -125q0 -74 -52 -126t-125 -52q-75 0 -126.5 52.5t-51.5 127.5zM807 1675q0 72 52.5 123.5t124.5 51.5q74 0 126 -52t52 -125q0 -74 -52 -126t-125 -52q-75 0 -126.5 52.5t-51.5 127.5z" />
<glyph unicode="&#xdd;" horiz-adv-x="1311" d="M-25 1365h424l258 -372l248 372h430l-511 -709v-656h-355v656zM521 1603l297 282l190 -173l-349 -237z" />
<glyph unicode="&#xde;" horiz-adv-x="1227" d="M143 0v1365h355v-191h210q120 0 197 -26t143 -88q134 -126 134 -339q0 -208 -110 -332q-112 -127 -352 -127h-222v-262h-355zM498 547h118q103 0 145 39q50 46 50 131q0 87 -47.5 129.5t-146.5 42.5h-119v-342z" />
<glyph unicode="&#xdf;" horiz-adv-x="1217" d="M112 0v1095q0 218 120 323q126 111 348 111q220 0 342 -120q111 -110 111 -287q0 -86 -37 -150.5t-124 -130.5q108 -51 158 -95q112 -101 112 -295q0 -155 -76 -279q-122 -200 -460 -200q-22 0 -69 2v277q103 1 161 46q83 62 83 172q0 104 -65 163.5t-179 60.5v265 q81 1 120 25q61 36 61 123q0 65 -37 103t-100 38q-100 0 -126 -77q-11 -31 -13 -53.5t-2 -125.5v-991h-328z" />
<glyph unicode="&#xe0;" horiz-adv-x="1270" d="M75 466q0 237 165 379q131 113 301 113q90 0 159 -29t130 -92v91h328v-928h-328v103q-106 -133 -286 -133q-117 0 -224 59q-117 66 -182 181q-63 112 -63 256zM347 1344l208 149l259 -316l-153 -112zM416 467q0 -89 62 -152q61 -62 150 -62q88 0 150 62t62 149 q0 89 -62 149q-64 62 -150 62q-88 0 -150 -62t-62 -146z" />
<glyph unicode="&#xe1;" horiz-adv-x="1270" d="M75 466q0 237 165 379q131 113 301 113q90 0 159 -29t130 -92v91h328v-928h-328v103q-106 -133 -286 -133q-117 0 -224 59q-117 66 -182 181q-63 112 -63 256zM416 467q0 -89 62 -152q61 -62 150 -62q88 0 150 62t62 149q0 89 -62 149q-64 62 -150 62q-88 0 -150 -62 t-62 -146zM483 1177l259 316l208 -149l-314 -279z" />
<glyph unicode="&#xe2;" horiz-adv-x="1270" d="M75 466q0 237 165 379q131 113 301 113q90 0 159 -29t130 -92v91h328v-928h-328v103q-106 -133 -286 -133q-117 0 -224 59q-117 66 -182 181q-63 112 -63 256zM245 1223l400 301l407 -301l-145 -158l-262 202l-261 -202zM416 467q0 -89 62 -152q61 -62 150 -62 q88 0 150 62t62 149q0 89 -62 149q-64 62 -150 62q-88 0 -150 -62t-62 -146z" />
<glyph unicode="&#xe3;" horiz-adv-x="1270" d="M75 466q0 237 165 379q131 113 301 113q90 0 159 -29t130 -92v91h328v-928h-328v103q-106 -133 -286 -133q-117 0 -224 59q-117 66 -182 181q-63 112 -63 256zM298 1075v19q0 75 27 140q25 58 71 92t101 34q32 0 60.5 -7.5t120.5 -42.5q81 -29 121 -29q28 0 41 15.5 t26 63.5h161q-12 -104 -34 -161q-50 -124 -173 -124q-72 0 -180 41q-94 36 -123 36t-42 -15.5t-21 -61.5h-156zM416 467q0 -89 62 -152q61 -62 150 -62q88 0 150 62t62 149q0 89 -62 149q-64 62 -150 62q-88 0 -150 -62t-62 -146z" />
<glyph unicode="&#xe4;" horiz-adv-x="1270" d="M75 466q0 237 165 379q131 113 301 113q90 0 159 -29t130 -92v91h328v-928h-328v103q-106 -133 -286 -133q-117 0 -224 59q-117 66 -182 181q-63 112 -63 256zM239 1252q0 72 52.5 123.5t124.5 51.5q74 0 126 -52t52 -125q0 -74 -52 -126t-125 -52q-75 0 -126.5 52.5 t-51.5 127.5zM416 467q0 -89 62 -152q61 -62 150 -62q88 0 150 62t62 149q0 89 -62 149q-64 62 -150 62q-88 0 -150 -62t-62 -146zM703 1252q0 72 52.5 123.5t124.5 51.5q74 0 126 -52t52 -125q0 -74 -52 -126t-125 -52q-75 0 -126.5 52.5t-51.5 127.5z" />
<glyph unicode="&#xe5;" horiz-adv-x="1270" d="M75 466q0 237 165 379q131 113 301 113q90 0 159 -29t130 -92v91h328v-928h-328v103q-106 -133 -286 -133q-117 0 -224 59q-117 66 -182 181q-63 112 -63 256zM367 1286q0 84 59 140q73 70 216 70h13q142 0 217 -70q58 -55 58 -142q0 -88 -58 -143q-75 -69 -217 -69h-13 q-143 0 -216 69q-59 56 -59 145zM416 467q0 -89 62 -152q61 -62 150 -62q88 0 150 62t62 149q0 89 -62 149q-64 62 -150 62q-88 0 -150 -62t-62 -146zM539 1285q0 -38 29 -60.5t79 -22.5q52 0 81.5 22t29.5 60q0 39 -29.5 60.5t-82.5 21.5q-48 0 -77.5 -22t-29.5 -59z" />
<glyph unicode="&#xe6;" horiz-adv-x="1777" d="M75 273q0 155 131 243q92 63 256 63q114 0 238 -48q1 15 1 25q0 167 -224 167q-93 0 -256 -53v247q154 44 274 44q153 0 253 -63q46 -29 93 -102q55 80 146.5 122.5t207.5 42.5q181 0 315 -90q101 -68 146 -175t46 -285h-694q4 -88 44 -138q58 -74 167 -74q112 0 150 88 h318q-30 -105 -96 -173q-141 -146 -383 -146q-137 0 -230.5 46.5t-136.5 135.5q-146 -176 -382 -176q-98 0 -180.5 29.5t-130.5 81.5q-73 79 -73 188zM396 297q0 -46 41 -75t107 -29q76 0 121 33q44 32 44 71q0 41 -49.5 69.5t-121.5 28.5q-73 0 -109 -32q-33 -29 -33 -66z M1016 601h380q-18 62 -51 95q-56 56 -140 56q-139 0 -189 -151z" />
<glyph unicode="&#xe7;" horiz-adv-x="887" d="M75 456q0 230 166 375q143 126 350 126q119 0 221 -52v-279q-86 60 -170 60q-105 0 -172 -73q-54 -60 -54 -152q0 -100 66 -161q67 -62 160 -62q91 0 170 61v-278q-114 -52 -230 -52q-144 0 -270 75q-237 140 -237 412zM285 -396l239 293l188 -122l-280 -264z" />
<glyph unicode="&#xe8;" horiz-adv-x="1172" d="M75 457q0 150 70 273q127 224 446 224q220 0 350 -117q83 -75 119 -176t36 -257h-690q3 -209 200 -209q59 0 94.5 19.5t66.5 68.5h316q-30 -104 -83 -165q-65 -77 -167 -115q-107 -40 -227 -40q-256 0 -402 150q-129 133 -129 344zM298 1344l208 149l259 -316l-153 -112z M415 594h376q-17 69 -67.5 108.5t-123.5 39.5q-75 0 -123.5 -39t-61.5 -109z" />
<glyph unicode="&#xe9;" horiz-adv-x="1172" d="M75 457q0 150 70 273q127 224 446 224q220 0 350 -117q83 -75 119 -176t36 -257h-690q3 -209 200 -209q59 0 94.5 19.5t66.5 68.5h316q-30 -104 -83 -165q-65 -77 -167 -115q-107 -40 -227 -40q-256 0 -402 150q-129 133 -129 344zM415 594h376q-17 69 -67.5 108.5 t-123.5 39.5q-75 0 -123.5 -39t-61.5 -109zM434 1177l259 316l208 -149l-314 -279z" />
<glyph unicode="&#xea;" horiz-adv-x="1172" d="M75 457q0 150 70 273q127 224 446 224q220 0 350 -117q83 -75 119 -176t36 -257h-690q3 -209 200 -209q59 0 94.5 19.5t66.5 68.5h316q-30 -104 -83 -165q-65 -77 -167 -115q-107 -40 -227 -40q-256 0 -402 150q-129 133 -129 344zM189 1223l400 301l407 -301l-145 -158 l-261 202l-262 -202zM415 594h376q-17 69 -67.5 108.5t-123.5 39.5q-75 0 -123.5 -39t-61.5 -109z" />
<glyph unicode="&#xeb;" horiz-adv-x="1172" d="M75 457q0 150 70 273q127 224 446 224q220 0 350 -117q83 -75 119 -176t36 -257h-690q3 -209 200 -209q59 0 94.5 19.5t66.5 68.5h316q-30 -104 -83 -165q-65 -77 -167 -115q-107 -40 -227 -40q-256 0 -402 150q-129 133 -129 344zM176 1252q0 72 52.5 123.5t124.5 51.5 q74 0 126 -52t52 -125q0 -74 -52 -126t-125 -52q-75 0 -126.5 52.5t-51.5 127.5zM415 594h376q-17 69 -67.5 108.5t-123.5 39.5q-75 0 -123.5 -39t-61.5 -109zM640 1252q0 72 52.5 123.5t124.5 51.5q74 0 126 -52t52 -125q0 -74 -52 -126t-125 -52q-75 0 -126.5 52.5 t-51.5 127.5z" />
<glyph unicode="&#xec;" horiz-adv-x="552" d="M-40 1344l208 149l259 -316l-152 -112zM112 0v928h328v-928h-328z" />
<glyph unicode="&#xed;" horiz-adv-x="552" d="M112 0v928h328v-928h-328zM124 1177l259 316l208 -149l-314 -279z" />
<glyph unicode="&#xee;" horiz-adv-x="551" d="M-86 1223l362 301l362 -301l-145 -158l-217 202l-223 -202zM112 0v928h328v-928h-328z" />
<glyph unicode="&#xef;" horiz-adv-x="552" d="M-113 1252q0 72 52.5 123.5t124.5 51.5q74 0 126 -52t52 -125q0 -74 -52 -126t-125 -52q-75 0 -126.5 52.5t-51.5 127.5zM112 0v928h328v-928h-328zM310 1252q0 72 52.5 123.5t124.5 51.5q74 0 126 -52t52 -125q0 -74 -52 -126t-125 -52q-75 0 -126.5 52.5t-51.5 127.5z " />
<glyph unicode="&#xf0;" horiz-adv-x="1267" d="M75 466q0 188 115 317q153 173 444 178q-55 70 -114 124l-179 -115l-101 164l123 80q-47 32 -122 71l129 223q139 -64 234 -136l206 130l104 -169l-142 -89q133 -115 219 -229q201 -266 201 -530q0 -230 -150 -370q-157 -147 -407 -147q-230 0 -385 124 q-175 140 -175 374zM422 469q0 -91 62 -154q61 -63 150 -63q87 0 149 63q62 62 62 151q0 91 -62 152q-63 62 -150 62q-88 0 -149 -62q-62 -63 -62 -149z" />
<glyph unicode="&#xf1;" horiz-adv-x="1203" d="M112 0v928h328v-117q57 66 105 93q78 44 192 44q170 0 268 -102q48 -49 67 -105t19 -150v-591h-328v470q0 107 -20 145q-16 33 -52.5 52.5t-78.5 19.5q-86 0 -137 -62q-35 -43 -35 -128v-497h-328zM237 1075v19q0 75 27 140q25 58 71 92t101 34q32 0 60 -7.5t122 -42.5 q80 -29 120 -29q28 0 41 15.5t26 63.5h161q-11 -104 -34 -161q-50 -124 -173 -124q-72 0 -179 41q-95 36 -124 36q-28 0 -41 -15.5t-22 -61.5h-156z" />
<glyph unicode="&#xf2;" horiz-adv-x="1267" d="M75 472q0 215 168 361q84 72 208 105q92 24 182 24q276 0 431 -168q128 -138 128 -330q0 -226 -168 -370q-150 -129 -396 -129q-156 0 -292 67q-127 63 -199 192q-62 109 -62 248zM332 1344l208 149l259 -316l-153 -112zM422 469q0 -91 62 -154q61 -62 150 -62 q87 0 149 62q62 63 62 151q0 90 -62 151q-63 62 -150 62q-88 0 -149 -62q-62 -63 -62 -148z" />
<glyph unicode="&#xf3;" horiz-adv-x="1267" d="M75 472q0 215 168 361q84 72 208 105q92 24 182 24q276 0 431 -168q128 -138 128 -330q0 -226 -168 -370q-150 -129 -396 -129q-156 0 -292 67q-127 63 -199 192q-62 109 -62 248zM422 469q0 -91 62 -154q61 -62 150 -62q87 0 149 62q62 63 62 151q0 90 -62 151 q-63 62 -150 62q-88 0 -149 -62q-62 -63 -62 -148zM468 1177l259 316l208 -149l-314 -279z" />
<glyph unicode="&#xf4;" horiz-adv-x="1267" d="M75 472q0 215 168 361q84 72 208 105q92 24 182 24q276 0 431 -168q128 -138 128 -330q0 -226 -168 -370q-150 -129 -396 -129q-156 0 -292 67q-127 63 -199 192q-62 109 -62 248zM230 1223l400 301l407 -301l-145 -158l-262 202l-261 -202zM422 469q0 -91 62 -154 q61 -62 150 -62q87 0 149 62q62 63 62 151q0 90 -62 151q-63 62 -150 62q-88 0 -149 -62q-62 -63 -62 -148z" />
<glyph unicode="&#xf5;" horiz-adv-x="1267" d="M75 472q0 215 168 361q84 72 208 105q92 24 182 24q276 0 431 -168q128 -138 128 -330q0 -226 -168 -370q-150 -129 -396 -129q-156 0 -292 67q-127 63 -199 192q-62 109 -62 248zM283 1075v19q0 75 27 140q25 58 71 92t101 34q32 0 60.5 -7.5t120.5 -42.5 q81 -29 121 -29q28 0 41 15.5t26 63.5h161q-12 -104 -34 -161q-50 -124 -174 -124q-71 0 -179 41q-94 36 -123 36t-42 -15.5t-21 -61.5h-156zM422 469q0 -91 62 -154q61 -62 150 -62q87 0 149 62q62 63 62 151q0 90 -62 151q-63 62 -150 62q-88 0 -149 -62q-62 -63 -62 -148 z" />
<glyph unicode="&#xf6;" horiz-adv-x="1267" d="M75 472q0 215 168 361q84 72 208 105q92 24 182 24q276 0 431 -168q128 -138 128 -330q0 -226 -168 -370q-150 -129 -396 -129q-156 0 -292 67q-127 63 -199 192q-62 109 -62 248zM224 1252q0 72 52.5 123.5t124.5 51.5q74 0 126 -52t52 -125q0 -74 -52 -126t-125 -52 q-75 0 -126.5 52.5t-51.5 127.5zM422 469q0 -91 62 -154q61 -62 150 -62q87 0 149 62q62 63 62 151q0 90 -62 151q-63 62 -150 62q-88 0 -149 -62q-62 -63 -62 -148zM688 1252q0 72 52.5 123.5t124.5 51.5q74 0 126 -52t52 -125q0 -74 -52 -126t-125 -52q-75 0 -126.5 52.5 t-51.5 127.5z" />
<glyph unicode="&#xf7;" d="M130 567v232h969v-232h-969zM469 329q0 58 42.5 100t100.5 42q60 0 102 -42t42 -101q0 -60 -42 -102t-101 -42q-60 0 -102 42.5t-42 102.5zM469 1039q0 58 42.5 100t100.5 42q60 0 102 -42t42 -101q0 -60 -42 -102t-101 -42q-60 0 -102 42.5t-42 102.5z" />
<glyph unicode="&#xf8;" horiz-adv-x="1267" d="M27 73l137 107q-88 132 -88 288q0 136 72 252q149 242 495 242q190 0 356 -104l154 120l96 -121l-138 -117q45 -67 62.5 -123t17.5 -134q0 -257 -168 -393q-154 -125 -397 -125q-220 0 -351 107l-151 -117zM417 468q0 -38 21 -87l316 261q-54 38 -111 38q-101 0 -166 -68 q-60 -62 -60 -144zM523 287q50 -33 109 -33q98 0 160 68q57 63 57 141q0 33 -16 77z" />
<glyph unicode="&#xf9;" horiz-adv-x="1212" d="M112 339v589h328v-526q0 -172 167 -172q166 0 166 172v526h328v-589q0 -167 -103 -261q-130 -118 -391 -118q-262 0 -392 118q-103 94 -103 261zM291 1344l208 149l259 -316l-153 -112z" />
<glyph unicode="&#xfa;" horiz-adv-x="1212" d="M112 339v589h328v-526q0 -172 167 -172q166 0 166 172v526h328v-589q0 -167 -103 -261q-130 -118 -391 -118q-262 0 -392 118q-103 94 -103 261zM455 1177l259 316l208 -149l-315 -279z" />
<glyph unicode="&#xfb;" horiz-adv-x="1212" d="M112 339v589h328v-526q0 -172 167 -172q166 0 166 172v526h328v-589q0 -167 -103 -261q-130 -118 -391 -118q-262 0 -392 118q-103 94 -103 261zM203 1223l400 301l406 -301l-145 -158l-261 202l-261 -202z" />
<glyph unicode="&#xfc;" horiz-adv-x="1212" d="M112 339v589h328v-526q0 -172 167 -172q166 0 166 172v526h328v-589q0 -167 -103 -261q-130 -118 -391 -118q-262 0 -392 118q-103 94 -103 261zM197 1252q0 72 52.5 123.5t124.5 51.5q74 0 126 -52t52 -125q0 -74 -52 -126t-125 -52q-75 0 -126.5 52.5t-51.5 127.5z M661 1252q0 72 52.5 123.5t124.5 51.5q74 0 126 -52t52 -125q0 -74 -52 -126t-125 -52q-75 0 -126.5 52.5t-51.5 127.5z" />
<glyph unicode="&#xfd;" horiz-adv-x="1246" d="M0 928h381l248 -476l241 476h376l-745 -1392h-368l315 591zM485 1177l259 316l208 -149l-315 -279z" />
<glyph unicode="&#xfe;" horiz-adv-x="1270" d="M112 -464v1966h328v-677q106 135 287 135q115 0 223 -60q118 -67 182 -181q63 -112 63 -257q0 -236 -165 -377q-134 -116 -298 -116q-174 0 -292 122v-555h-328zM430 465q0 -88 62 -150q65 -64 151 -64q85 0 149 64q62 62 62 147q0 91 -62 152q-64 63 -150 63t-150 -63 q-62 -61 -62 -149z" />
<glyph unicode="&#xff;" horiz-adv-x="1246" d="M0 928h381l248 -476l241 476h376l-745 -1392h-368l315 591zM213 1252q0 72 52.5 123.5t124.5 51.5q74 0 126 -52t52 -125q0 -74 -52 -126t-125 -52q-75 0 -126.5 52.5t-51.5 127.5zM677 1252q0 71 52.5 123t124.5 52q74 0 126 -52t52 -125q0 -74 -52 -126t-125 -52 q-75 0 -126.5 52.5t-51.5 127.5z" />
<glyph unicode="&#x152;" horiz-adv-x="2077" d="M82 685q0 203 106 375q102 167 280 263q163 88 339 88q128 0 227 -42.5t194 -138.5v135h767v-302h-412v-226h385v-300h-385v-237h412v-300h-767v144q-188 -186 -429 -186q-163 0 -314 77q-206 104 -316 307q-87 161 -87 343zM453 690q0 -161 112 -275q111 -112 270 -112 q158 0 269 112q112 113 112 271q0 160 -112 268q-115 112 -270 112q-158 0 -269 -112q-52 -52 -82 -123t-30 -141z" />
<glyph unicode="&#x153;" horiz-adv-x="1918" d="M75 460q0 157 79 280q142 222 457 222q118 0 202.5 -33t172.5 -114q49 58 103 86q103 54 254 54q188 0 310 -88q99 -71 142.5 -176.5t47.5 -282.5h-698q10 -96 44 -140q52 -69 161 -69q60 0 95.5 20t62.5 68h317q-21 -102 -86 -172q-140 -149 -396 -149q-124 0 -208 38 t-149 124q-62 -63 -98 -88q-104 -74 -281 -74q-259 0 -398 147q-134 141 -134 347zM417 465q0 -102 71 -165q57 -51 129 -51q85 0 146 66q56 60 56 147q0 97 -70 160q-55 49 -131 49q-88 0 -146 -64q-55 -61 -55 -142zM1154 596h383q-23 72 -72.5 111t-118.5 39 q-72 0 -122 -39t-70 -111z" />
<glyph unicode="&#x178;" horiz-adv-x="1311" d="M-25 1365h424l258 -372l248 372h430l-511 -709v-656h-355v656zM232 1675q0 72 52.5 123.5t124.5 51.5q74 0 126 -52t52 -125q0 -74 -52 -126t-125 -52q-75 0 -126.5 52.5t-51.5 127.5zM724 1675q0 72 52.5 123.5t124.5 51.5q74 0 126 -52t52 -125q0 -74 -52 -126 t-125 -52q-75 0 -126.5 52.5t-51.5 127.5z" />
<glyph unicode="&#x2c6;" horiz-adv-x="1024" d="M109 1223l400 301l406 -301l-145 -158l-261 202l-261 -202z" />
<glyph unicode="&#x2dc;" horiz-adv-x="1024" d="M148 1075q0 60 10 104q20 89 73 135t116 46q32 0 60 -7.5t121 -42.5q81 -29 121 -29q28 0 41 15.5t25 63.5h162q-12 -104 -34 -161q-50 -124 -174 -124q-71 0 -179 41q-94 36 -123 36t-42 -15.5t-21 -61.5h-156z" />
<glyph unicode="&#x2000;" horiz-adv-x="946" />
<glyph unicode="&#x2001;" horiz-adv-x="1892" />
<glyph unicode="&#x2002;" horiz-adv-x="946" />
<glyph unicode="&#x2003;" horiz-adv-x="1892" />
<glyph unicode="&#x2004;" horiz-adv-x="630" />
<glyph unicode="&#x2005;" horiz-adv-x="473" />
<glyph unicode="&#x2006;" horiz-adv-x="315" />
<glyph unicode="&#x2007;" horiz-adv-x="315" />
<glyph unicode="&#x2008;" horiz-adv-x="236" />
<glyph unicode="&#x2009;" horiz-adv-x="378" />
<glyph unicode="&#x200a;" horiz-adv-x="105" />
<glyph unicode="&#x2010;" horiz-adv-x="519" d="M0 348v273h519v-273h-519z" />
<glyph unicode="&#x2011;" horiz-adv-x="519" d="M0 348v273h519v-273h-519z" />
<glyph unicode="&#x2012;" horiz-adv-x="519" d="M0 348v273h519v-273h-519z" />
<glyph unicode="&#x2013;" d="M130 348v273h969v-273h-969z" />
<glyph unicode="&#x2014;" horiz-adv-x="1570" d="M0 348v273h1570v-273h-1570z" />
<glyph unicode="&#x2018;" horiz-adv-x="707" d="M96 765l333 600h210l-234 -600h-309z" />
<glyph unicode="&#x2019;" horiz-adv-x="707" d="M68 765l235 600h308l-333 -600h-210z" />
<glyph unicode="&#x201a;" horiz-adv-x="707" d="M68 -254l235 601h308l-333 -601h-210z" />
<glyph unicode="&#x201c;" horiz-adv-x="1171" d="M96 765l333 600h210l-234 -600h-309zM560 765l333 600h211l-235 -600h-309z" />
<glyph unicode="&#x201d;" horiz-adv-x="1171" d="M68 765l235 600h308l-333 -600h-210zM532 765l235 600h309l-334 -600h-210z" />
<glyph unicode="&#x201e;" horiz-adv-x="1171" d="M68 -254l235 601h308l-333 -601h-210zM532 -254l235 601h309l-334 -601h-210z" />
<glyph unicode="&#x2022;" horiz-adv-x="1365" d="M401 696q0 121 84 203q84 83 202 83q112 0 194 -83q83 -84 83 -203q0 -118 -82 -202q-83 -84 -199 -84t-198 83q-84 84 -84 203z" />
<glyph unicode="&#x2026;" horiz-adv-x="1864" d="M99 177q0 86 62.5 148t148.5 62q88 0 150 -62t62 -150t-62 -151q-62 -62 -149 -62q-89 0 -150 62q-62 63 -62 153zM720 177q0 86 62.5 148t148.5 62q88 0 150 -62t62 -150q0 -89 -62 -151t-149 -62q-89 0 -150 62q-62 63 -62 153zM1341 177q0 86 62.5 148t148.5 62 q88 0 150 -62t62 -150q0 -89 -62 -151t-149 -62q-89 0 -150 62q-62 63 -62 153z" />
<glyph unicode="&#x202f;" horiz-adv-x="378" />
<glyph unicode="&#x2039;" horiz-adv-x="637" d="M57 467l311 444l181 -124l-228 -320l234 -315l-187 -131z" />
<glyph unicode="&#x203a;" horiz-adv-x="637" d="M82 152l233 315l-228 320l182 124l311 -444l-311 -446z" />
<glyph unicode="&#x205f;" horiz-adv-x="473" />
<glyph unicode="&#x20ac;" horiz-adv-x="1220" d="M-27 423l127 201h74q-2 32 -2 54q0 14 1 26h-200l127 201h106q30 93 72 163q101 165 278 260q162 87 340 87q127 0 256 -46v-328q-114 56 -239 56q-111 0 -200 -51t-136 -141h500l-127 -201h-425q-2 -17 -2 -29q0 -22 4 -51h380l-127 -201h-186q31 -45 72 -77 q107 -84 244 -84q123 0 242 54v-320q-141 -47 -254 -47q-227 0 -418 132.5t-266 341.5h-241z" />
<glyph unicode="&#x2122;" horiz-adv-x="1590" d="M1 1183v182h539v-182h-165v-596h-212v596h-162zM580 587l130 778h209l149 -399l157 399h211l115 -778h-212l-53 422l-175 -422h-92l-167 422l-61 -422h-211z" />
<glyph unicode="&#x25fc;" horiz-adv-x="930" d="M0 0v930h930v-930h-930z" />
<glyph unicode="&#xfb04;" horiz-adv-x="1857" d="M22 655v273h117v140q0 116 23 185t81 131q130 138 310 138q71 0 145 -34v-286q-70 33 -115 33q-32 0 -62.5 -18t-41.5 -43q-12 -29 -12 -129v-117h135v-273h-135v-655h-328v655h-117zM661 655v273h117v140q0 116 23 185t81 131q130 138 310 138q72 0 145 -34v-286 q-69 33 -115 33q-32 0 -62.5 -18t-41.5 -43q-12 -30 -12 -129v-117h231v-273h-231v-655h-328v655h-117zM1417 0v1502h328v-1502h-328z" />
</font>
</defs>
</svg>
