<?xml version="1.0" standalone="no"?>
<!DOCTYPE svg PUBLIC "-//W3C//DTD SVG 1.1//EN" "http://www.w3.org/Graphics/SVG/1.1/DTD/svg11.dtd" >
<svg xmlns="http://www.w3.org/2000/svg" xmlns:xlink="http://www.w3.org/1999/xlink" version="1.1">
<metadata></metadata>
<defs>
<font id="futuraligregular" horiz-adv-x="1120" >
<font-face units-per-em="2048" ascent="1559" descent="-489" />
<missing-glyph horiz-adv-x="512" />
<glyph unicode="&#xfb01;" horiz-adv-x="810" d="M54 761v75h93v397q0 138 42 197q62 87 177 87q34 0 73 -12v-75q-43 9 -65 9q-77 0 -111 -52t-34 -171v-380h210v-75h-210v-761h-82v761h-93zM549 1115q0 30 21.5 52t51.5 22q31 0 52.5 -21.5t21.5 -53.5q0 -31 -21.5 -53t-51.5 -22q-31 0 -52.5 22t-21.5 54zM582 0v836 h82v-836h-82z" />
<glyph unicode="&#xfb02;" horiz-adv-x="810" d="M54 761v75h93v397q0 138 42 197q62 87 177 87q34 0 73 -12v-75q-43 9 -65 9q-77 0 -111 -52t-34 -171v-380h210v-75h-210v-761h-82v761h-93zM582 0v1494h82v-1494h-82z" />
<glyph unicode="&#xfb03;" horiz-adv-x="1244" d="M54 761v75h93v397q0 138 42 197q62 87 177 87q33 0 73 -12v-75q-42 8 -65 8q-78 0 -111.5 -51.5t-33.5 -170.5v-380h196v-75h-196v-761h-82v761h-93zM490 761v75h92v397q0 138 42 197q62 87 178 87q34 0 73 -12v-75q-43 9 -65 9q-78 0 -112 -52t-34 -171v-380h211v-75 h-211v-761h-82v761h-92zM984 1115q0 31 21.5 52.5t51.5 21.5q31 0 52.5 -21.5t21.5 -53.5q0 -31 -21.5 -53t-51.5 -22q-31 0 -52.5 22t-21.5 54zM1016 0v836h82v-836h-82z" />
<glyph horiz-adv-x="0" />
<glyph horiz-adv-x="682" />
<glyph unicode=" "  horiz-adv-x="512" />
<glyph unicode="&#x09;" horiz-adv-x="512" />
<glyph unicode="&#xa0;" horiz-adv-x="512" />
<glyph unicode="!" horiz-adv-x="531" d="M191 61q0 31 22 52.5t53 21.5t52.5 -21.5t21.5 -52.5t-22 -53t-52 -22q-31 0 -53 22t-22 53zM221 244v1121h89v-1121h-89z" />
<glyph unicode="&#x22;" horiz-adv-x="737" d="M216 1365h93l-15 -467h-63zM428 1365h94l-15 -467h-63z" />
<glyph unicode="#" horiz-adv-x="1229" d="M92 451v82h252l40 327h-241v82h251l53 429l87 -13l-51 -416h329l53 429l88 -13l-52 -416h235v-82h-243l-40 -327h233v-82h-244l-57 -456l-87 12l55 444h-331l-57 -456l-87 12l55 444h-241zM433 533h329l40 327h-329z" />
<glyph unicode="$" d="M149 275l75 35q102 -243 323 -244v626q-22 11 -33 17q-110 54 -156 87q-70 51 -100.5 109t-30.5 138q0 196 171 291q64 36 149 43v190h79v-193q188 -33 277 -189l-66 -54q-86 141 -211 160v-541q160 -78 215 -118q129 -95 129 -251t-114 -270q-96 -95 -230 -120v-209h-79 v202q-289 14 -398 291zM317 1040q0 -116 108 -185q41 -27 122 -67v506q-61 -4 -103 -29q-58 -36 -92.5 -97t-34.5 -128zM626 75q38 9 67 23q84 42 135 116q52 75 52 165q0 89 -54.5 148t-199.5 127v-579z" />
<glyph unicode="%" horiz-adv-x="1238" d="M68 1113q0 106 78 186q76 78 197 78q136 0 216 -99q59 -75 59 -169q0 -111 -78 -190q-77 -78 -200 -78q-134 0 -213 99q-59 75 -59 173zM150 1112q0 -82 57 -139q55 -57 136 -57q80 0 137 57q56 56 56 136q0 81 -56.5 137.5t-136.5 56.5q-81 0 -136 -57q-57 -57 -57 -134 zM184 2l808 1393l60 -31l-811 -1394zM620 260q0 106 78 186q77 78 197 78q136 0 215 -99q60 -75 60 -169q0 -111 -78 -190q-77 -78 -200 -78q-134 0 -213 99q-59 75 -59 173zM701 258q0 -82 57 -139q56 -57 137 -57q80 0 137 57q56 56 56 137q0 80 -56.5 136.5t-137.5 56.5 q-80 0 -136 -57q-57 -57 -57 -134z" />
<glyph unicode="&#x26;" horiz-adv-x="1288" d="M130 327q0 137 95 252.5t312 242.5q-80 121 -108.5 184t-28.5 118q0 115 82 192q79 74 185 74q117 0 189 -88q59 -73 59 -165q0 -129 -122 -239q-38 -34 -131 -100l334 -450q80 79 160 182l80 -36q-107 -138 -189 -218l207 -279h-113l-162 217q-86 -71 -135 -105 q-198 -137 -359 -137q-73 0 -144.5 32.5t-122.5 88.5q-88 96 -88 234zM220 335q0 -133 93 -214q77 -67 175 -67q172 0 440 233l-342 467q-24 -17 -128 -84q-121 -77 -179.5 -159.5t-58.5 -175.5zM488 1118q0 -66 62 -157q42 -61 61 -93q19 14 28 21q114 82 145 123 q42 56 42 127q0 75 -51 120q-52 46 -116 46q-77 0 -127 -63q-44 -55 -44 -124z" />
<glyph unicode="'" horiz-adv-x="503" d="M199 1365h93l-15 -467h-63z" />
<glyph unicode="(" horiz-adv-x="552" d="M178 583q0 256 40.5 521t103.5 418l67 -48q-126 -440 -126 -891t126 -892l-67 -47q-63 153 -103.5 418t-40.5 521z" />
<glyph unicode=")" horiz-adv-x="552" d="M164 -309q126 443 126 892t-126 891l67 48q63 -154 103.5 -418.5t40.5 -520.5q0 -257 -40.5 -521t-103.5 -418z" />
<glyph unicode="*" d="M238 1228l27 84l258 -91l-7 273h89l-7 -273l257 91l28 -84l-262 -78l166 -217l-71 -52l-156 225l-155 -225l-71 52l166 217z" />
<glyph unicode="+" d="M64 655v82h455v448h82v-448h454v-82h-454v-447h-82v447h-455z" />
<glyph unicode="," horiz-adv-x="415" d="M77 -281l123 415l83 -25l-152 -410z" />
<glyph unicode="-" horiz-adv-x="344" d="M0 382v82h344v-82h-344z" />
<glyph unicode="." horiz-adv-x="416" d="M133 61q0 30 22 52t53 22t53 -21.5t22 -52.5t-22 -53t-53 -22t-53 22t-22 53z" />
<glyph unicode="/" horiz-adv-x="1113" d="M14 -323l1038 1845l64 -33l-1036 -1845z" />
<glyph unicode="0" d="M64 686q0 131 38.5 261t107.5 227q64 93 156 150q91 57 200 57q141 0 263 -110q120 -110 181 -290q45 -136 45 -292q0 -294 -146 -503q-67 -98 -173 -157q-86 -48 -176 -48q-147 0 -277 121q-108 101 -167 267q-52 147 -52 317zM154 680q0 -251 112 -429 q117 -187 297 -187q161 0 278 175q125 188 125 439q0 243 -105 420q-59 97 -150 156q-70 44 -152 44q-113 0 -211 -90q-92 -85 -144 -231q-50 -140 -50 -297z" />
<glyph unicode="1" d="M342 1283l41 82h262v-1365h-89v1283h-214z" />
<glyph unicode="2" d="M125 0l523 577q133 146 183.5 236t50.5 180q0 139 -106 227q-95 78 -217 78q-117 0 -207 -72q-55 -44 -79 -99t-28 -148h-92q7 144 57 220q53 81 151 131q99 51 204 51q174 0 298 -124q109 -109 109 -269q0 -78 -27.5 -148.5t-92.5 -154.5q-50 -66 -177 -204l-358 -399 h648v-82h-840z" />
<glyph unicode="3" d="M155 336h86q11 -94 45 -146q37 -54 107 -90t140 -36q127 0 223 97q88 88 88 217q0 114 -72 195q-78 86 -235 95v81q103 8 167 51q121 82 121 228q0 131 -97 213q-67 57 -169 57q-70 0 -129 -28.5t-92 -78.5q-34 -51 -46 -151h-85q13 113 51 182q43 77 124 118 q79 41 172 41q163 0 265 -110q96 -104 96 -244q0 -211 -205 -314q76 -31 124 -81q100 -103 100 -254q0 -183 -131 -296q-118 -101 -271 -101q-103 0 -193.5 48.5t-137.5 129.5q-41 72 -46 177z" />
<glyph unicode="4" d="M23 259l821 1152v-1070h192v-82h-192v-259h-87v259h-734zM185 341h572v803z" />
<glyph unicode="5" d="M61 207l79 32q60 -84 144.5 -129.5t184.5 -45.5q179 0 296 128q102 111 102 266q0 180 -133 293q-111 95 -265 95q-100 0 -206 -60l178 579h519v-82h-456l-114 -368q53 14 101 14q198 0 331 -134q135 -135 135 -335q0 -227 -170 -368q-135 -111 -319 -111 q-128 0 -233 58.5t-174 167.5z" />
<glyph unicode="6" d="M74 463q0 155 87 279l453 640l70 -52l-301 -429q98 37 183 37q199 0 334 -139q142 -145 142 -339q0 -121 -62 -232q-67 -120 -180 -184q-109 -63 -242 -63q-218 0 -359 156q-125 138 -125 326zM164 460q0 -164 116 -280q115 -116 280 -116q163 0 277 116q116 117 116 275 q0 170 -116 284q-117 116 -278 116q-164 0 -279 -116q-116 -116 -116 -279z" />
<glyph unicode="7" d="M72 37l883 1246h-829v82h990l-977 -1380z" />
<glyph unicode="8" d="M165 362q0 119 54 203.5t168 143.5q-189 109 -189 314q0 154 112 262q100 96 253 96q166 0 272 -113q95 -102 95 -242q0 -120 -83 -222q-47 -58 -116 -95q225 -106 225 -340q0 -185 -138 -296q-114 -92 -259 -92q-111 0 -208 57q-186 108 -186 324zM254 370 q0 -127 89 -217q89 -89 217 -89q127 0 216 89t89 213q0 128 -89 214q-92 89 -217 89q-127 0 -216 -89t-89 -210zM288 1026q0 -116 81 -198q80 -81 195 -81q114 0 194 81q81 81 81 195q0 116 -81 195q-82 80 -195 80q-114 0 -194 -81q-81 -81 -81 -191z" />
<glyph unicode="9" d="M78 905q0 121 63 231q66 119 179 183q109 62 242 62q218 0 359 -155q125 -137 125 -324q0 -154 -87 -277l-453 -642l-70 53l301 429q-100 -35 -182 -35q-199 0 -335 138q-142 145 -142 337zM167 910q0 -166 116 -282q114 -116 280 -116q163 0 279 116q115 115 115 277 q0 165 -115 278q-119 115 -281 115q-164 0 -278 -115q-54 -54 -85 -127.5t-31 -145.5z" />
<glyph unicode=":" horiz-adv-x="416" d="M133 61q0 30 22 52t53 22t53 -21.5t22 -52.5t-22 -53t-53 -22t-53 22t-22 53zM133 780q0 30 22 52t53 22t53 -21.5t22 -52.5t-22 -53t-53 -22t-53 22t-22 53z" />
<glyph unicode=";" horiz-adv-x="415" d="M77 -281l123 415l83 -25l-152 -410zM140 780q0 31 22 52.5t52 21.5q31 0 53 -21.5t22 -52.5t-22 -53t-53 -22q-30 0 -52 22t-22 53z" />
<glyph unicode="&#x3c;" horiz-adv-x="1024" d="M68 645v81l887 397v-90l-790 -347l790 -348v-89z" />
<glyph unicode="=" d="M64 546v82h991v-82h-991zM64 765v82h991v-82h-991z" />
<glyph unicode="&#x3e;" horiz-adv-x="1024" d="M69 248v90l790 348l-790 347v90l887 -397v-81z" />
<glyph unicode="?" horiz-adv-x="952" d="M150 1073q0 140 107 229q90 75 219 75q164 0 257 -120q68 -89 68 -209q0 -126 -71 -216q-52 -67 -160 -101q-13 -3 -125 -33q-166 -44 -166 -194q0 -90 65 -148q55 -50 131 -50q57 0 105 29.5t69 78.5q18 39 24 112h83v-21q0 -66 -23 -119q-33 -75 -101 -117t-157 -42 q-134 0 -213 91q-71 81 -71 189q0 106 63 174t195 103q102 28 132.5 40t58.5 36q74 61 74 182q0 105 -63 174q-73 79 -180 79q-108 0 -180 -81q-56 -64 -56 -156q0 -40 12 -97h-84q-13 70 -13 112zM397 62q0 30 22 52t53 22t52.5 -22t21.5 -53t-22 -53t-52 -22q-31 0 -53 22 t-22 54z" />
<glyph unicode="@" horiz-adv-x="1573" d="M106 684q0 196 95 357q89 152 246 244q169 99 372 99q199 0 359 -95q134 -80 209 -209q80 -135 80 -295q0 -106 -36.5 -206t-99.5 -168q-80 -86 -188 -86q-56 0 -96 35.5t-40 85.5q0 7 1 18q-61 -70 -104 -97q-73 -46 -165 -46q-140 0 -231 94q-91 95 -91 243 q0 178 116 293q101 99 247 99q92 0 154 -36t123 -124l17 143h82l-55 -458l-17 -106q-1 -30 21 -50.5t56 -20.5q73 0 137 78q44 53 69.5 134t25.5 166q0 240 -169 389q-86 77 -208 116q-97 30 -199 30q-269 0 -453 -184q-181 -181 -181 -444q0 -250 162 -429 q181 -201 497 -201q125 0 227 25.5t226 86.5l29 -69q-231 -115 -478 -115q-231 0 -397 96q-153 88 -245 242q-98 166 -98 365zM501 664q0 -115 68 -189q70 -77 177 -77q120 0 206 97q87 98 87 226q0 114 -71 182q-74 70 -179 70q-120 0 -203 -86q-85 -88 -85 -223z" />
<glyph unicode="A" horiz-adv-x="1197" d="M27 0l574 1406l568 -1406h-99l-181 449h-582l-181 -449h-99zM341 531h515l-256 646z" />
<glyph unicode="B" horiz-adv-x="1091" d="M184 0v1365h296q189 0 285 -104q92 -99 92 -254q0 -99 -36 -163t-123 -119q102 -28 160 -75q124 -101 124 -271q0 -177 -138 -289q-111 -90 -287 -90h-373zM273 82h229q122 0 182.5 16.5t113.5 65.5q94 84 94 215q0 113 -72 192q-47 51 -124 72.5t-210 21.5h-213v-583z M273 747h173q95 0 140.5 11t89.5 46q90 71 90 204q0 147 -91 218q-41 31 -92.5 44t-136.5 13h-173v-536z" />
<glyph unicode="C" horiz-adv-x="1386" d="M109 679q0 176 87 334q97 177 274 278q164 93 347 93q130 0 241 -43t218 -134v-122q-79 89 -159 133q-147 83 -302 83t-298 -83q-159 -93 -244 -254q-72 -136 -72 -289q0 -277 213 -458q186 -157 402 -157q174 0 342 104q53 33 118 103v-120q-217 -170 -454 -170 q-163 0 -315 76q-206 104 -314 298q-84 153 -84 328z" />
<glyph unicode="D" horiz-adv-x="1264" d="M184 0v1365h270q309 0 500 -189q201 -199 201 -493t-201 -493q-191 -190 -500 -190h-270zM273 82h180q260 0 427 157q184 174 184 444q0 269 -184 443q-167 157 -427 157h-180v-1201z" />
<glyph unicode="E" horiz-adv-x="948" d="M184 0v1365h654v-82h-565v-494h551v-82h-551v-625h565v-82h-654z" />
<glyph unicode="F" horiz-adv-x="831" d="M184 0v1365h552v-82h-463v-494h449v-82h-449v-707h-89z" />
<glyph unicode="G" horiz-adv-x="1580" d="M108 677q0 194 103 364q99 163 265 255q161 88 344 88q242 0 428 -147q74 -59 164 -173l-70 -56q-76 100 -131 148q-79 68 -183 106.5t-210 38.5q-152 0 -289 -74q-159 -87 -249 -247q-82 -145 -82 -305q0 -260 190 -442q182 -173 424 -173q203 0 376 129 q98 73 139 157.5t48 226.5h-480v82h575q0 -133 -16 -211t-59 -152q-79 -136 -231 -222q-166 -93 -350 -93q-190 0 -359 100q-166 98 -258 261q-89 158 -89 339z" />
<glyph unicode="H" horiz-adv-x="1374" d="M184 0v1365h89v-579h827v579h89v-1365h-89v704h-827v-704h-89z" />
<glyph unicode="I" horiz-adv-x="457" d="M184 0v1365h89v-1365h-89z" />
<glyph unicode="J" horiz-adv-x="543" d="M-110 -138l64 49q61 -114 171 -114q144 0 144 206v1362h89v-1362q0 -74 -10 -117t-36 -80q-64 -92 -191 -92q-156 0 -231 148z" />
<glyph unicode="K" horiz-adv-x="1104" d="M184 0v1365h89v-635l641 635h122l-669 -658l710 -707h-131l-639 649l-34 -33v-616h-89z" />
<glyph unicode="L" horiz-adv-x="646" d="M184 0v1365h89v-1283h345v-82h-434z" />
<glyph unicode="M" horiz-adv-x="1837" d="M171 0l154 1413l590 -1264l595 1264l157 -1413h-91l-123 1098l-538 -1147l-536 1147l-119 -1098h-89z" />
<glyph unicode="N" horiz-adv-x="1603" d="M184 0v1380l1145 -1200v1185h89v-1400l-1145 1200v-1165h-89z" />
<glyph unicode="O" horiz-adv-x="1634" d="M109 692q0 184 98 343q98 157 248 247q170 102 362 102q195 0 362 -102q157 -96 248 -247q98 -163 98 -354q0 -190 -98 -355q-92 -153 -248 -247q-170 -102 -367 -102q-186 0 -357 102q-157 94 -248 247q-98 166 -98 366zM200 690q0 -281 200 -464q96 -88 220 -132 q97 -34 192 -34q171 0 321 90q141 86 221 225q80 142 80 306q0 268 -200 453q-97 90 -222 133q-99 34 -195 34q-169 0 -316 -90q-141 -87 -220 -225q-81 -140 -81 -296z" />
<glyph unicode="P" horiz-adv-x="912" d="M184 0v1365h263q104 0 175 -25t124 -80q98 -102 98 -254q0 -165 -105 -263q-101 -95 -290 -95h-176v-648h-89zM273 730h179q141 0 224 81q77 75 77 195q0 127 -74 201q-77 76 -241 76h-165v-553z" />
<glyph unicode="Q" horiz-adv-x="1634" d="M109 678q0 182 91 343q89 158 242 254q173 109 376 109q198 0 370 -105q170 -105 260 -279q77 -150 77 -318q0 -137 -46 -249.5t-154 -241.5l180 -191h-118l-123 138q-213 -161 -452 -161q-191 0 -359 100q-156 93 -248 249q-96 164 -96 352zM200 677q0 -271 198 -450 q98 -89 222 -133q98 -34 197 -34q198 0 386 142l-340 356h122l277 -303q89 104 124 185q48 109 48 233q0 262 -180 444q-182 184 -434 184q-176 0 -329 -96q-143 -91 -221 -240q-70 -135 -70 -288z" />
<glyph unicode="R" horiz-adv-x="956" d="M184 0v1365h194q104 0 169.5 -16t119.5 -53q137 -96 137 -293q0 -223 -173 -314q-70 -37 -217 -44l447 -645h-108l-440 645h-40v-645h-89zM273 726h131q141 0 218 64q92 76 92 215q0 79 -32.5 143t-88.5 94q-75 41 -208 41h-112v-557z" />
<glyph unicode="S" horiz-adv-x="1049" d="M109 271l76 36q41 -88 76 -131q43 -54 110.5 -85t141.5 -31q137 0 236 94t99 224q0 133 -134 211q-46 27 -255 129q-159 79 -211 144q-60 74 -60 181q0 160 113 257q98 84 237 84q106 0 193 -50.5t140 -143.5l-66 -55q-41 64 -76 95q-80 71 -193 71q-123 0 -194 -87 q-63 -77 -63 -172q0 -82 51 -136.5t192 -122.5q202 -96 272 -142q145 -95 145 -262q0 -183 -147 -303q-121 -99 -280 -99q-141 0 -242.5 74t-160.5 220z" />
<glyph unicode="T" horiz-adv-x="849" d="M27 1283v82h795v-82h-355v-1283h-89v1283h-351z" />
<glyph unicode="U" horiz-adv-x="1297" d="M184 487v878h89v-854q0 -126 10 -187t39 -107q45 -70 143 -116q88 -41 183 -41q135 0 247 78q78 55 103 128t25 245v854h89v-878q0 -161 -22 -227q-46 -140 -190 -219q-115 -64 -252 -64q-164 0 -292 88q-129 89 -160 230q-12 57 -12 192z" />
<glyph unicode="V" horiz-adv-x="1041" d="M27 1365h99l399 -1152l393 1152h95l-488 -1421z" />
<glyph unicode="W" horiz-adv-x="2011" d="M27 1365h100l372 -1155l495 1229l462 -1229l426 1155h101l-527 -1417l-463 1239l-507 -1239z" />
<glyph unicode="X" horiz-adv-x="947" d="M48 0l374 697l-359 668h100l309 -574l307 574h102l-357 -668l376 -697h-101l-327 605l-324 -605h-100z" />
<glyph unicode="Y" horiz-adv-x="1052" d="M27 1365h104l389 -685l400 685h105l-462 -782v-583h-89v583z" />
<glyph unicode="Z" horiz-adv-x="1137" d="M75 0l833 1283h-753v82h906l-834 -1283h810v-82h-962z" />
<glyph unicode="[" horiz-adv-x="567" d="M177 -328v1822h307v-82h-218v-1659h218v-81h-307z" />
<glyph unicode="\" horiz-adv-x="1113" d="M-3 1489l64 33l1038 -1845l-65 -33z" />
<glyph unicode="]" horiz-adv-x="567" d="M82 -246h218v1659h-218v81h307v-1822h-307v82z" />
<glyph unicode="^" horiz-adv-x="1024" d="M73 780l380 587h117l380 -587h-103l-338 517l-335 -517h-101z" />
<glyph unicode="_" horiz-adv-x="1024" d="M0 -154h1024v-85h-1024v85z" />
<glyph unicode="`" horiz-adv-x="1024" d="M295 1191l86 54l187 -255l-60 -34z" />
<glyph unicode="a" horiz-adv-x="1054" d="M91 422q0 220 142 339q112 93 265 93q203 0 328 -163v145h82v-836h-82v150q-44 -66 -98 -103q-103 -69 -228 -69q-191 0 -311 145q-98 119 -98 299zM176 427q0 -171 99 -274q95 -99 228 -99q158 0 254 125q74 96 74 247q0 173 -104 263q-101 89 -225 89q-140 0 -240 -109 q-86 -94 -86 -242z" />
<glyph unicode="b" horiz-adv-x="1054" d="M146 0v1494h82v-803q124 163 328 163q181 0 297 -123q110 -117 110 -309q0 -208 -129 -332q-116 -112 -280 -112q-104 0 -187.5 44t-138.5 128v-150h-82zM222 425q0 -177 103 -278q94 -93 224 -93q159 0 256 128q74 98 74 234q0 181 -114 280q-94 82 -211 82 q-147 0 -255 -115q-77 -82 -77 -238z" />
<glyph unicode="c" horiz-adv-x="902" d="M91 411q0 189 127 320q119 123 305 123q155 0 291 -107v-107q-68 68 -122 96q-82 42 -170 42q-156 0 -256 -117q-90 -105 -90 -247q0 -149 98 -253q102 -107 247 -107q168 0 304 151v-110q-142 -117 -305 -117q-132 0 -239 71q-106 70 -156 188q-34 82 -34 174z" />
<glyph unicode="d" horiz-adv-x="1054" d="M91 422q0 220 142 339q112 93 265 93q203 0 328 -163v803h82v-1494h-82v150q-44 -66 -98 -103q-103 -69 -228 -69q-191 0 -311 145q-98 119 -98 299zM176 427q0 -171 99 -274q95 -99 228 -99q158 0 254 125q74 96 74 247q0 173 -104 263q-101 89 -225 89 q-140 0 -240 -109q-86 -94 -86 -242z" />
<glyph unicode="e" horiz-adv-x="990" d="M91 413q0 188 117 317q112 124 291 124q177 0 286 -122.5t113 -324.5h-718q5 -116 46 -189q42 -74 118 -119q77 -45 162 -45q123 0 211 80q39 35 85 112l70 -41q-128 -227 -371 -227q-197 0 -313 146q-97 120 -97 289zM186 485h619q-18 94 -61 157t-109 99 q-67 37 -138 37q-117 0 -204.5 -82.5t-106.5 -210.5z" />
<glyph unicode="f" horiz-adv-x="436" d="M54 761v75h93v397q0 138 42 197q62 87 177 87q34 0 73 -12v-75q-43 9 -65 9q-77 0 -111 -52t-34 -171v-380h210v-75h-210v-761h-82v761h-93z" />
<glyph unicode="g" horiz-adv-x="1067" d="M91 -120h85q10 -92 49 -149q43 -63 114 -96q76 -36 163 -36q174 0 263 125q74 106 74 293v126q-140 -164 -331 -164q-182 0 -302 141q-106 124 -106 297q0 189 124 316q119 121 296 121q99 0 171.5 -37.5t147.5 -126.5v146h82v-819q0 -126 -20.5 -202t-70.5 -141 q-118 -152 -330 -152q-170 0 -284 96q-108 92 -125 262zM185 419q0 -153 82 -251q95 -113 239 -113q156 0 260 121q78 92 78 245q0 166 -102 260q-103 96 -231 96q-157 0 -255 -133q-71 -96 -71 -225z" />
<glyph unicode="h" horiz-adv-x="902" d="M146 0v1494h82v-788q39 60 75 88q76 60 180 60q100 0 176 -56q53 -40 75 -101.5t22 -170.5v-526h-82v526q0 120 -30 171q-22 37 -68.5 59t-102.5 22q-136 0 -201 -114q-25 -44 -34.5 -94t-9.5 -135v-435h-82z" />
<glyph unicode="i" horiz-adv-x="374" d="M113 1115q0 30 21.5 52t51.5 22q31 0 52.5 -21.5t21.5 -53.5q0 -31 -21.5 -53t-51.5 -22q-31 0 -52.5 22t-21.5 54zM146 0v836h82v-836h-82z" />
<glyph unicode="j" horiz-adv-x="374" d="M114 1115q0 30 21.5 52t51.5 22q31 0 52.5 -21.5t21.5 -53.5q0 -31 -21.5 -53t-51.5 -22q-31 0 -52.5 22t-21.5 54zM147 -489v1325h82v-1325h-82z" />
<glyph unicode="k" horiz-adv-x="812" d="M146 0v1494h82v-1012l341 354h109l-352 -362l469 -474h-113l-411 414l-43 -43v-371h-82z" />
<glyph unicode="l" horiz-adv-x="374" d="M146 0v1494h82v-1494h-82z" />
<glyph unicode="m" horiz-adv-x="1327" d="M146 0v836h82v-105q75 123 216 123q158 0 233 -152q33 65 72 96q72 56 173 56q136 0 207 -91q30 -38 41 -84.5t11 -131.5v-547h-82v558q0 65 -7.5 97t-29.5 60q-48 62 -143 62q-103 0 -157.5 -70t-54.5 -203v-504h-82v538q0 97 -30 151q-49 89 -155 89q-55 0 -104 -30 t-73 -78q-35 -70 -35 -187v-483h-82z" />
<glyph unicode="n" horiz-adv-x="901" d="M146 0v836h82v-130q39 60 75 88q75 60 179 60q101 0 176 -56q53 -40 75 -101t22 -170v-527h-82v527q0 119 -30 170q-48 81 -171 81q-135 0 -200 -114q-25 -44 -34.5 -93.5t-9.5 -135.5v-435h-82z" />
<glyph unicode="o" horiz-adv-x="1058" d="M91 423q0 180 134 309q128 122 305 122q186 0 317 -135q119 -122 119 -303q0 -208 -153 -335q-124 -103 -287 -103q-119 0 -225 64q-107 64 -162 172q-48 93 -48 209zM176 422q0 -161 106 -267q100 -101 241 -101q170 0 279 130q79 96 79 232q0 159 -107 261 q-106 101 -249 101q-163 0 -267 -127q-82 -101 -82 -229z" />
<glyph unicode="p" horiz-adv-x="1054" d="M146 -489v1325h82v-150q44 65 98 100q103 68 228 68q191 0 311 -144q98 -119 98 -299q0 -220 -142 -339q-112 -94 -264 -94q-204 0 -329 167v-634h-82zM223 408q0 -173 104 -265q101 -89 225 -89q141 0 240 109q86 95 86 243q0 171 -99 274q-94 98 -228 98 q-156 0 -253 -124q-75 -96 -75 -246z" />
<glyph unicode="q" horiz-adv-x="1054" d="M91 411q0 209 129 332q116 111 280 111q104 0 187 -43t139 -125v150h82v-1325h-82v634q-125 -167 -329 -167q-179 0 -296 124q-110 117 -110 309zM175 418q0 -182 114 -281q94 -83 211 -83q148 0 254 115q77 84 77 239q0 176 -103 278q-92 92 -223 92q-158 0 -255 -128 q-75 -97 -75 -232z" />
<glyph unicode="r" horiz-adv-x="532" d="M146 0v836h82v-109q65 127 185 127q40 0 89 -20l-44 -72q-33 18 -59 18q-73 0 -126 -69q-27 -36 -36 -87t-9 -175v-449h-82z" />
<glyph unicode="s" horiz-adv-x="700" d="M78 199l79 25q60 -170 206 -170q92 0 145 66q43 52 43 119q0 64 -34.5 100.5t-125.5 69.5q-137 50 -191 101t-54 130q0 101 77 162q66 52 148 52q70 0 125.5 -34.5t91.5 -101.5l-70 -35q-51 95 -143 95q-59 0 -101.5 -39.5t-42.5 -94.5t46 -90q35 -27 117 -58 q118 -45 160 -76q82 -62 82 -177q0 -130 -91 -204q-75 -61 -180 -61q-106 0 -180.5 57.5t-106.5 163.5z" />
<glyph unicode="t" horiz-adv-x="398" d="M61 761v75h93v299h82v-299h146v-75h-146v-761h-82v761h-93z" />
<glyph unicode="u" horiz-adv-x="893" d="M146 309v527h82v-498q0 -131 28 -184q23 -45 75.5 -72.5t115.5 -27.5q62 0 114.5 27.5t75.5 72.5q28 53 28 184v498h82v-527q0 -88 -13 -137.5t-48 -90.5q-86 -103 -239 -103q-154 0 -241 103q-34 40 -47 90t-13 138z" />
<glyph unicode="v" horiz-adv-x="800" d="M16 836h96l289 -675l289 675h93l-382 -886z" />
<glyph unicode="w" horiz-adv-x="1376" d="M16 836h95l283 -672l290 723l288 -723l292 672h95l-387 -888l-288 726l-290 -726z" />
<glyph unicode="x" horiz-adv-x="820" d="M16 0l341 438l-311 398h108l257 -334l253 334h108l-304 -398l336 -438h-106l-287 375l-286 -375h-109z" />
<glyph unicode="y" horiz-adv-x="877" d="M16 836h96l342 -742l311 742h95l-560 -1325h-93l204 475z" />
<glyph unicode="z" horiz-adv-x="927" d="M37 0l682 761h-573v75h744l-676 -761h672v-75h-849z" />
<glyph unicode="{" horiz-adv-x="492" d="M74 552v62q78 23 98.5 70.5t20.5 208.5v355q0 110 27 163q48 91 166 91l47 -1v-74h-30q-51 0 -71 -12q-50 -31 -50 -163v-362q0 -154 -16 -208t-76 -99q51 -39 71.5 -84.5t20.5 -123.5v-461q0 -132 50 -163q20 -12 71 -12h30v-74q-13 0 -47 -1q-97 -3 -145 60.5 t-48 193.5v455q0 80 -26.5 120t-92.5 59z" />
<glyph unicode="|" horiz-adv-x="1024" d="M468 -341v1706h89v-1706h-89z" />
<glyph unicode="}" horiz-adv-x="492" d="M59 -261h30q50 0 70 12q51 31 51 163v362q0 154 16 208t75 99q-50 39 -70.5 85t-20.5 123v461q0 132 -51 163q-20 12 -70 12h-30v74q13 0 47 1q97 3 145 -60.5t48 -193.5v-455q0 -80 26.5 -120t92.5 -59v-62q-79 -23 -99 -70.5t-20 -208.5v-355q0 -110 -28 -163 q-47 -91 -165 -91l-47 1v74z" />
<glyph unicode="~" horiz-adv-x="1365" d="M193 1253q55 103 111 153q63 57 154 57q84 0 238 -79q84 -42 128 -57t86 -15q59 0 105.5 36t96.5 119l59 -35q-55 -100 -110 -149q-29 -26 -72.5 -42.5t-81.5 -16.5q-51 0 -103 18t-169 77q-112 57 -187 57q-55 0 -100 -37t-97 -123z" />
<glyph unicode="&#xa1;" horiz-adv-x="531" d="M191 977q0 30 22 52t53 22t52.5 -22t21.5 -53q0 -30 -22 -52t-52 -22q-31 0 -53 22t-22 53zM221 -328v1121h89v-1121h-89z" />
<glyph unicode="&#xa2;" d="M193 691q0 176 104.5 297t275.5 143v211h79v-209q139 -8 263 -106v-107q-117 122 -263 136v-721q152 13 274 149v-109q-132 -108 -274 -116v-232h-79v234q-110 14 -190 68q-106 71 -156 188q-34 81 -34 174zM276 693q0 -192 156 -300q67 -47 141 -55v716 q-69 -12 -117 -40q-85 -48 -134 -137q-46 -85 -46 -184z" />
<glyph unicode="&#xa3;" d="M139 45q107 117 243 117q115 109 115 219q0 17 -5 52h-224v82h202q-58 115 -146 251q-55 84 -76.5 143t-21.5 124q0 163 127 266q100 81 236 81q151 0 250 -102t99 -259h-88q-4 92 -34 147q-34 60 -96 96q-63 35 -139 35q-121 0 -195 -88q-70 -82 -70 -181q0 -57 20 -101 t116 -202q84 -138 112 -210h246v-82h-230q5 -34 5 -58q0 -123 -103 -232q74 -24 132 -44q105 -36 148 -36q111 0 193 142l75 -45q-112 -186 -258 -186q-67 0 -223 56q-122 44 -169 44q-48 0 -89.5 -20.5t-102.5 -74.5z" />
<glyph unicode="&#xa4;" horiz-adv-x="1365" d="M144 1197l53 53l185 -185q141 114 301 114q162 0 299 -113l185 184l53 -53l-184 -185q109 -136 109 -295q0 -156 -111 -293l188 -187l-53 -53l-187 187q-137 -112 -298 -112q-156 0 -296 108l-185 -184l-52 54l183 184q-113 134 -113 299q0 154 108 291zM305 718 q0 -168 125 -282q109 -97 255 -97q157 0 267 112t110 272q0 71 -28.5 140.5t-78.5 119.5q-114 116 -270 116q-168 0 -282 -126q-98 -108 -98 -255z" />
<glyph unicode="&#xa5;" d="M61 1365h103l390 -685l400 685h105l-285 -482h248v-82h-296l-125 -211h421v-82h-425v-508h-89v508h-411v82h407l-121 211h-286v82h239z" />
<glyph unicode="&#xa6;" horiz-adv-x="1024" d="M468 314h89v-655h-89v655zM468 698v667h89v-667h-89z" />
<glyph unicode="&#xa7;" d="M205 583q0 230 220 331q-70 36 -107 72q-81 79 -81 214q0 153 102 236q93 77 238 77q210 0 285 -145q31 -61 40 -207h-91q-1 270 -237 270q-109 0 -173 -58q-73 -67 -73 -180q0 -107 83 -170q35 -27 66.5 -40.5t129.5 -43.5q143 -44 206 -99q102 -91 102 -254 q0 -216 -221 -330q74 -32 113 -69q86 -83 86 -229q0 -144 -86 -222q-91 -82 -249 -82q-213 0 -286 137q-31 57 -37 216h92q-1 -128 31 -181q53 -90 201 -90q117 0 180 63q62 62 62 164q0 134 -113 199q-50 27 -206 82q-122 42 -181 100q-96 93 -96 239zM297 588 q0 -111 77 -190q77 -77 187 -77q109 0 186 77q77 78 77 187q0 111 -77 186q-79 77 -187 77q-109 0 -186 -77q-77 -78 -77 -183z" />
<glyph unicode="&#xa8;" horiz-adv-x="1024" d="M268 1084q0 31 22 52.5t53 21.5t52.5 -21.5t21.5 -52.5t-22 -53t-52 -22q-31 0 -53 22t-22 53zM608 1084q0 31 22 52.5t53 21.5q30 0 52 -22t22 -52q0 -31 -22 -53t-52 -22q-32 0 -53.5 22t-21.5 53z" />
<glyph unicode="&#xa9;" horiz-adv-x="1516" d="M55 689q0 303 233 516q198 181 481 181q180 0 340 -94q164 -97 258 -258q94 -162 94 -351q0 -188 -94 -351q-94 -164 -258 -258q-163 -94 -351 -94t-352 94q-163 95 -257 258q-94 164 -94 357zM153 688q0 -274 200 -455q173 -155 405 -155q162 0 303 81q140 81 221 222 t81 302q0 266 -201 449q-93 86 -213 125q-97 31 -181 31q-278 0 -459 -201q-156 -172 -156 -399zM383 674q0 176 133 296q116 106 270 106q144 0 266 -106v-109q-58 70 -108 97q-78 44 -158 44q-144 0 -244 -116q-81 -94 -81 -215q0 -146 113 -242q98 -83 212 -83 q147 0 266 136v-107q-127 -101 -264 -101q-174 0 -298 132q-107 114 -107 268z" />
<glyph unicode="&#xaa;" horiz-adv-x="691" d="M60 1081q0 145 93 223q74 61 174 61q133 0 215 -106v94h53v-547h-53v98q-75 -112 -214 -112q-125 0 -203 95q-65 78 -65 194zM115 1086q0 -113 65 -180q62 -65 150 -65q104 0 167 82q49 63 49 162q0 114 -68 173q-67 58 -148 58q-92 0 -158 -71q-57 -62 -57 -159z" />
<glyph unicode="&#xab;" horiz-adv-x="711" d="M68 423l264 306l52 -49l-218 -257l218 -256l-52 -49zM285 423l265 306l52 -49l-219 -257l219 -256l-52 -49z" />
<glyph unicode="&#xac;" horiz-adv-x="1024" d="M68 463v83h887v-546h-89v463h-798z" />
<glyph unicode="&#xad;" horiz-adv-x="344" d="M0 382v82h344v-82h-344z" />
<glyph unicode="&#xae;" horiz-adv-x="1515" d="M55 688q0 304 233 516q198 181 481 181q180 0 340 -94q164 -97 258 -257q94 -162 94 -351t-94 -352t-258 -257q-163 -94 -351 -94t-351 94q-164 95 -258 257q-94 164 -94 357zM153 687q0 -274 200 -454q173 -155 405 -155q162 0 302 81q141 81 222 221q81 141 81 303 q0 265 -201 448q-93 86 -213 125q-97 31 -181 31q-278 0 -459 -200q-156 -172 -156 -400zM599 287v778h120q109 0 167 -40q81 -57 81 -173q0 -97 -62 -156q-46 -43 -141 -53l246 -356h-92l-243 355v-355h-76zM675 714h58q156 0 156 139q0 140 -167 140h-47v-279z" />
<glyph unicode="&#xaf;" horiz-adv-x="1024" d="M257 1036v78h511v-78h-511z" />
<glyph unicode="&#xb0;" d="M287 1092q0 116 80 193q83 80 197 80q108 0 189 -80q80 -78 80 -192t-80 -193q-80 -80 -193 -80t-193 80q-80 79 -80 192zM369 1093q0 -79 56 -135t135 -56t135 56t56 135q0 81 -56 134q-58 56 -132 56q-81 0 -138 -56q-56 -55 -56 -134z" />
<glyph unicode="&#xb1;" d="M64 0v82h991v-82h-991zM64 655v82h455v448h82v-448h454v-82h-454v-447h-82v447h-455z" />
<glyph unicode="&#xb2;" horiz-adv-x="792" d="M106 547l341 351q81 83 113 136.5t32 105.5q0 79 -65 129q-57 45 -131 45q-51 0 -97 -23t-69 -60t-26 -107h-71q4 94 37 140q35 50 98.5 80.5t130.5 30.5q112 0 192 -75q71 -66 71 -164q0 -70 -35.5 -127.5t-152.5 -176.5l-215 -224h399v-61h-552z" />
<glyph unicode="&#xb3;" horiz-adv-x="792" d="M139 757h67q8 -59 29 -88q22 -31 64.5 -51t84.5 -20q77 0 136 55q53 49 53 123q0 75 -50 117.5t-143 46.5v61q68 4 109 30q73 46 73 129q0 65 -45.5 108.5t-114.5 43.5q-75 0 -114.5 -37t-49.5 -115h-67q9 76 34 118q59 97 193 97q104 0 170 -67q63 -63 63 -149 q0 -124 -118 -185q60 -25 95 -78.5t35 -119.5q0 -112 -85 -180q-77 -61 -175 -61q-66 0 -124.5 29.5t-88.5 78.5q-28 45 -31 114z" />
<glyph unicode="&#xb4;" horiz-adv-x="1024" d="M456 990l187 255l86 -54l-213 -235z" />
<glyph unicode="&#xb5;" horiz-adv-x="893" d="M146 -489v1325h82v-498q0 -131 28 -184q23 -45 75.5 -72.5t115.5 -27.5q62 0 114.5 27.5t75.5 72.5q28 53 28 184v498h82v-527q0 -88 -13 -137.5t-48 -90.5q-86 -103 -237 -103q-128 0 -221 87v-554h-82z" />
<glyph unicode="&#xb6;" d="M116 1025q0 152 96 250q87 90 276 90h498l-36 -75h-91v-1498h-82v1498h-235v-1498h-82v900h-28q-157 0 -244 111q-72 92 -72 222z" />
<glyph unicode="&#xb7;" horiz-adv-x="422" d="M137 424q0 30 22 52t53 22t52.5 -22t21.5 -53t-22 -53t-52 -22q-31 0 -53 22t-22 54z" />
<glyph unicode="&#xb8;" horiz-adv-x="1024" d="M378 -357l168 261l91 -43l-196 -252z" />
<glyph unicode="&#xb9;" horiz-adv-x="792" d="M247 1304l33 61h176v-819h-70v758h-139z" />
<glyph unicode="&#xba;" horiz-adv-x="693" d="M60 1083q0 118 88 202q84 80 199 80q122 0 208 -88q78 -80 78 -198q0 -136 -100 -219q-81 -68 -188 -68q-132 0 -219 102q-66 78 -66 189zM115 1082q0 -105 70 -175q65 -66 158 -66q112 0 183 85q52 63 52 152q0 105 -71 172q-69 66 -163 66q-107 0 -175 -84 q-54 -66 -54 -150z" />
<glyph unicode="&#xbb;" horiz-adv-x="711" d="M109 167l219 256l-219 257l52 49l264 -306l-264 -305zM326 167l219 256l-219 257l52 49l265 -306l-265 -305z" />
<glyph unicode="&#xbc;" horiz-adv-x="1852" d="M247 1304l33 61h176v-819h-70v758h-139zM492 2l809 1394l58 -31l-809 -1396zM1101 153l540 707v-646h122v-61h-122v-153h-70v153h-470zM1231 214h340v448z" />
<glyph unicode="&#xbd;" horiz-adv-x="1851" d="M247 1304l33 61h176v-819h-70v758h-139zM492 2l809 1394l58 -31l-809 -1396zM1165 0l341 352q82 85 113.5 137t31.5 104q0 78 -65 129q-57 44 -131 44q-52 0 -97.5 -22.5t-68.5 -59.5t-26 -106h-71q4 94 37 140q35 50 98.5 80.5t130.5 30.5q112 0 192 -75q71 -66 71 -164 q0 -70 -36 -128t-152 -177l-215 -224h399v-61h-552z" />
<glyph unicode="&#xbe;" horiz-adv-x="1851" d="M139 757h67q8 -59 29 -88q22 -31 64.5 -51t84.5 -20q77 0 136 55q53 49 53 123q0 75 -50 117.5t-143 46.5v61q68 4 109 30q73 46 73 129q0 65 -45.5 108.5t-114.5 43.5q-75 0 -114.5 -37t-49.5 -115h-67q9 76 34 118q59 97 193 97q104 0 170 -67q63 -63 63 -149 q0 -124 -118 -185q60 -25 95 -78.5t35 -119.5q0 -112 -85 -180q-77 -61 -175 -61q-66 0 -124.5 29.5t-88.5 78.5q-28 45 -31 114zM491 2l810 1394l58 -31l-809 -1396zM1101 153l540 707v-646h122v-61h-122v-153h-70v153h-470zM1231 214h340v448z" />
<glyph unicode="&#xbf;" horiz-adv-x="952" d="M150 -12q0 126 71 217q52 66 160 101q12 4 124 33q166 44 166 195q0 89 -64 148q-56 50 -132 50q-57 0 -104.5 -29.5t-69.5 -78.5q-17 -39 -23 -112h-83q0 64 9 99q25 96 102 150q71 50 170 50q134 0 212 -91q71 -82 71 -191q0 -106 -63 -174t-194 -104 q-102 -27 -132.5 -39t-58.5 -36q-74 -62 -74 -183q0 -106 63 -175q73 -79 179 -79q109 0 180 82q56 65 56 158q0 39 -11 97h84q13 -71 13 -114q0 -138 -107 -227q-91 -76 -219 -76q-164 0 -257 120q-68 88 -68 209zM401 976q0 31 22 53t53 22t52.5 -22t21.5 -54 q0 -30 -22 -52t-52 -22q-31 0 -53 22t-22 53z" />
<glyph unicode="&#xc0;" horiz-adv-x="1197" d="M27 0l574 1406l568 -1406h-99l-181 449h-582l-181 -449h-99zM341 531h515l-256 646zM342 1671l95 65l249 -222l-72 -53z" />
<glyph unicode="&#xc1;" horiz-adv-x="1197" d="M27 0l574 1406l568 -1406h-99l-181 449h-582l-181 -449h-99zM341 531h515l-256 646zM518 1514l249 222l94 -65l-272 -210z" />
<glyph unicode="&#xc2;" horiz-adv-x="1197" d="M27 0l574 1406l568 -1406h-99l-181 449h-582l-181 -449h-99zM341 531h515l-256 646zM343 1520l255 215l255 -215l-73 -57l-182 153l-182 -153z" />
<glyph unicode="&#xc3;" horiz-adv-x="1197" d="M27 0l574 1406l568 -1406h-99l-181 449h-582l-181 -449h-99zM339 1549q30 66 63 94t83 28q45 0 126 -35q84 -37 118 -37q50 0 82 78l60 -45q-42 -123 -146 -123q-43 0 -121 33q-93 39 -125 39q-29 0 -46 -16.5t-35 -60.5zM341 531h515l-256 646z" />
<glyph unicode="&#xc4;" horiz-adv-x="1197" d="M27 0l574 1406l568 -1406h-99l-181 449h-582l-181 -449h-99zM329 1591q0 31 23 54t56 23q32 0 55 -23t23 -55q0 -33 -23 -56t-55 -23q-33 0 -56 23t-23 57zM341 531h515l-256 646zM710 1591q0 31 23 54t56 23q32 0 55 -23t23 -55q0 -33 -23 -56t-55 -23q-33 0 -56 23 t-23 57z" />
<glyph unicode="&#xc5;" horiz-adv-x="1197" d="M27 0l574 1406l568 -1406h-99l-181 449h-582l-181 -449h-99zM341 531h515l-256 646zM434 1613q0 66 48.5 114t115.5 48q68 0 116 -48t48 -116t-48 -116t-116 -48t-116 48.5t-48 117.5zM513 1611q0 -35 25 -60t60 -25t60 24.5t25 59.5t-25 59.5t-60 24.5t-60 -24.5 t-25 -58.5z" />
<glyph unicode="&#xc6;" horiz-adv-x="1743" d="M27 0l551 1365h594l32 -82h-562l202 -495h548l34 -82h-548l253 -624h565l33 -82h-661l-182 448h-584l-177 -448h-98zM337 530h515l-260 642z" />
<glyph unicode="&#xc7;" horiz-adv-x="1386" d="M109 679q0 176 87 334q97 177 274 278q164 93 347 93q130 0 241 -43t218 -134v-122q-79 89 -159 133q-147 83 -302 83t-298 -83q-159 -93 -244 -254q-72 -136 -72 -289q0 -277 213 -458q186 -157 402 -157q174 0 342 104q53 33 118 103v-120q-217 -170 -454 -170 q-163 0 -315 76q-206 104 -314 298q-84 153 -84 328zM579 -369l179 273l103 -51l-209 -259z" />
<glyph unicode="&#xc8;" horiz-adv-x="948" d="M184 0v1365h654v-82h-565v-494h551v-82h-551v-625h565v-82h-654zM306 1671l95 65l249 -222l-72 -53z" />
<glyph unicode="&#xc9;" horiz-adv-x="948" d="M184 0v1365h654v-82h-565v-494h551v-82h-551v-625h565v-82h-654zM407 1514l249 222l94 -65l-272 -210z" />
<glyph unicode="&#xca;" horiz-adv-x="948" d="M184 0v1365h654v-82h-565v-494h551v-82h-551v-625h565v-82h-654zM259 1520l255 215l255 -215l-74 -57l-181 153l-183 -153z" />
<glyph unicode="&#xcb;" horiz-adv-x="948" d="M184 0v1365h654v-82h-565v-494h551v-82h-551v-625h565v-82h-654zM245 1591q0 31 23 54t56 23q32 0 55 -23t23 -55q0 -33 -23 -56t-55 -23q-33 0 -56 23t-23 57zM626 1591q0 31 23 54t56 23q32 0 55 -23t23 -55q0 -33 -23 -56t-55 -23q-33 0 -56 23t-23 57z" />
<glyph unicode="&#xcc;" horiz-adv-x="457" d="M-7 1671l92 65l224 -222l-71 -53zM184 0v1365h89v-1365h-89z" />
<glyph unicode="&#xcd;" horiz-adv-x="457" d="M148 1514l224 222l92 -65l-244 -210zM184 0v1365h89v-1365h-89z" />
<glyph unicode="&#xce;" horiz-adv-x="457" d="M-6 1520l235 215l234 -215l-71 -57l-163 153l-165 -153zM184 0v1365h89v-1365h-89z" />
<glyph unicode="&#xcf;" horiz-adv-x="458" d="M21 1591q0 31 23 54t56 23q32 0 55 -23t23 -55q0 -33 -23 -56t-55 -23q-33 0 -56 23t-23 57zM184 0v1365h89v-1365h-89zM279 1591q0 31 23.5 54t55.5 23t55 -23t23 -55q0 -33 -23 -56t-55 -23q-33 0 -56 23t-23 57z" />
<glyph unicode="&#xd0;" horiz-adv-x="1264" d="M48 703v82h137v580h270q309 0 500 -189q201 -198 201 -493q0 -294 -201 -493q-191 -190 -500 -190h-270v703h-137zM274 82h179q261 0 427 157q185 174 185 444t-185 443q-166 157 -427 157h-179v-498h341v-82h-341v-621z" />
<glyph unicode="&#xd1;" horiz-adv-x="1603" d="M184 0v1380l1145 -1200v1185h89v-1400l-1145 1200v-1165h-89zM536 1549q30 66 63 94t82 28q46 0 126 -35q84 -37 118 -37q50 0 83 78l59 -45q-42 -123 -146 -123q-42 0 -121 33q-93 39 -125 39q-29 0 -46 -16.5t-34 -60.5z" />
<glyph unicode="&#xd2;" horiz-adv-x="1634" d="M109 692q0 184 98 343q98 157 248 247q170 102 362 102q195 0 362 -102q157 -96 248 -247q98 -163 98 -354q0 -190 -98 -355q-92 -153 -248 -247q-170 -102 -367 -102q-186 0 -357 102q-157 94 -248 247q-98 166 -98 366zM200 690q0 -281 200 -464q96 -88 220 -132 q97 -34 192 -34q171 0 321 90q141 86 221 225q80 142 80 306q0 268 -200 453q-97 90 -222 133q-99 34 -195 34q-169 0 -316 -90q-141 -87 -220 -225q-81 -140 -81 -296zM599 1671l95 65l249 -222l-72 -53z" />
<glyph unicode="&#xd3;" horiz-adv-x="1634" d="M109 692q0 184 98 343q98 157 248 247q170 102 362 102q195 0 362 -102q157 -96 248 -247q98 -163 98 -354q0 -190 -98 -355q-92 -153 -248 -247q-170 -102 -367 -102q-186 0 -357 102q-157 94 -248 247q-98 166 -98 366zM200 690q0 -281 200 -464q96 -88 220 -132 q97 -34 192 -34q171 0 321 90q141 86 221 225q80 142 80 306q0 268 -200 453q-97 90 -222 133q-99 34 -195 34q-169 0 -316 -90q-141 -87 -220 -225q-81 -140 -81 -296zM723 1514l249 222l94 -65l-272 -210z" />
<glyph unicode="&#xd4;" horiz-adv-x="1634" d="M109 692q0 184 98 343q98 157 248 247q170 102 362 102q195 0 362 -102q157 -96 248 -247q98 -163 98 -354q0 -190 -98 -355q-92 -153 -248 -247q-170 -102 -367 -102q-186 0 -357 102q-157 94 -248 247q-98 166 -98 366zM200 690q0 -281 200 -464q96 -88 220 -132 q97 -34 192 -34q171 0 321 90q141 86 221 225q80 142 80 306q0 268 -200 453q-97 90 -222 133q-99 34 -195 34q-169 0 -316 -90q-141 -87 -220 -225q-81 -140 -81 -296zM562 1520l255 215l255 -215l-74 -57l-181 153l-182 -153z" />
<glyph unicode="&#xd5;" horiz-adv-x="1634" d="M109 692q0 184 98 343q98 157 248 247q170 102 362 102q195 0 362 -102q157 -96 248 -247q98 -163 98 -354q0 -190 -98 -355q-92 -153 -248 -247q-170 -102 -367 -102q-186 0 -357 102q-157 94 -248 247q-98 166 -98 366zM200 690q0 -281 200 -464q96 -88 220 -132 q97 -34 192 -34q171 0 321 90q141 86 221 225q80 142 80 306q0 268 -200 453q-97 90 -222 133q-99 34 -195 34q-169 0 -316 -90q-141 -87 -220 -225q-81 -140 -81 -296zM565 1549q30 66 63 94t82 28q46 0 126 -35q85 -37 119 -37q49 0 82 78l59 -45q-42 -123 -145 -123 q-43 0 -121 33q-94 39 -125 39q-29 0 -46.5 -16.5t-34.5 -60.5z" />
<glyph unicode="&#xd6;" horiz-adv-x="1634" d="M109 692q0 184 98 343q98 157 248 247q170 102 362 102q195 0 362 -102q157 -96 248 -247q98 -163 98 -354q0 -190 -98 -355q-92 -153 -248 -247q-170 -102 -367 -102q-186 0 -357 102q-157 94 -248 247q-98 166 -98 366zM200 690q0 -281 200 -464q96 -88 220 -132 q97 -34 192 -34q171 0 321 90q141 86 221 225q80 142 80 306q0 268 -200 453q-97 90 -222 133q-99 34 -195 34q-169 0 -316 -90q-141 -87 -220 -225q-81 -140 -81 -296zM548 1591q0 31 23 54t56 23q32 0 55 -23t23 -55q0 -33 -23 -56t-55 -23q-33 0 -56 23t-23 57zM929 1591 q0 31 23 54t56 23q32 0 55 -23t23 -55q0 -33 -23 -56t-55 -23q-33 0 -56 23t-23 57z" />
<glyph unicode="&#xd7;" d="M158 350l347 346l-347 347l56 56l346 -347l347 347l56 -56l-347 -347l347 -346l-56 -56l-347 347l-346 -347z" />
<glyph unicode="&#xd8;" horiz-adv-x="1634" d="M109 683q0 188 98 352q92 154 248 247q170 102 360 102q253 0 462 -172l165 166l55 -55l-164 -165q192 -208 192 -479q0 -188 -98 -353q-92 -153 -248 -247q-170 -102 -361 -102q-259 0 -478 186l-166 -171l-51 56l163 169q-177 204 -177 466zM200 683q0 -231 150 -407 l864 877q-179 148 -399 148q-165 0 -314 -90q-141 -85 -220 -225q-81 -141 -81 -303zM404 222q185 -162 415 -162q165 0 314 90q141 86 221 225q80 141 80 304q0 243 -165 422z" />
<glyph unicode="&#xd9;" horiz-adv-x="1297" d="M184 487v878h89v-854q0 -126 10 -187t39 -107q45 -70 143 -116q88 -41 183 -41q135 0 247 78q78 55 103 128t25 245v854h89v-878q0 -161 -22 -227q-46 -140 -190 -219q-115 -64 -252 -64q-164 0 -292 88q-129 89 -160 230q-12 57 -12 192zM420 1671l94 65l249 -222 l-72 -53z" />
<glyph unicode="&#xda;" horiz-adv-x="1297" d="M184 487v878h89v-854q0 -126 10 -187t39 -107q45 -70 143 -116q88 -41 183 -41q135 0 247 78q78 55 103 128t25 245v854h89v-878q0 -161 -22 -227q-46 -140 -190 -219q-115 -64 -252 -64q-164 0 -292 88q-129 89 -160 230q-12 57 -12 192zM547 1514l249 222l95 -65 l-272 -210z" />
<glyph unicode="&#xdb;" horiz-adv-x="1297" d="M184 487v878h89v-854q0 -126 10 -187t39 -107q45 -70 143 -116q88 -41 183 -41q135 0 247 78q78 55 103 128t25 245v854h89v-878q0 -161 -22 -227q-46 -140 -190 -219q-115 -64 -252 -64q-164 0 -292 88q-129 89 -160 230q-12 57 -12 192zM393 1520l255 215l255 -215 l-73 -57l-182 153l-182 -153z" />
<glyph unicode="&#xdc;" horiz-adv-x="1297" d="M184 487v878h89v-854q0 -126 10 -187t39 -107q45 -70 143 -116q88 -41 183 -41q135 0 247 78q78 55 103 128t25 245v854h89v-878q0 -161 -22 -227q-46 -140 -190 -219q-115 -64 -252 -64q-164 0 -292 88q-129 89 -160 230q-12 57 -12 192zM379 1591q0 31 23 54t56 23 q32 0 55 -23t23 -55q0 -33 -23 -56t-55 -23q-33 0 -56 23t-23 57zM760 1591q0 31 23 54t56 23q32 0 55 -23t23 -55q0 -33 -23 -56t-55 -23q-33 0 -56 23t-23 57z" />
<glyph unicode="&#xdd;" horiz-adv-x="1052" d="M27 1365h104l389 -685l400 685h105l-462 -782v-583h-89v583zM425 1514l249 222l94 -65l-272 -210z" />
<glyph unicode="&#xde;" horiz-adv-x="912" d="M184 0v1365h89v-204h174q104 0 175 -25t124 -80q98 -101 98 -253q0 -166 -105 -264q-101 -95 -290 -95h-176v-444h-89zM273 526h179q141 0 224 81q77 75 77 195q0 127 -74 201q-76 76 -241 76h-165v-553z" />
<glyph unicode="&#xdf;" horiz-adv-x="1007" d="M58 761v75h89v363q0 154 77 233q84 85 219 85q136 0 222 -95q71 -78 71 -196q0 -177 -158 -250q110 -40 173 -97q71 -63 116 -162q48 -107 48 -216q0 -152 -88 -279q-136 -197 -402 -232v83q145 22 241 97q164 128 164 335q0 148 -89 264q-84 108 -234 148q-29 7 -82 16 v71q92 9 137 40q40 28 64.5 78.5t24.5 106.5q0 101 -69 162q-56 50 -144 50q-54 0 -100.5 -21.5t-69.5 -57.5q-39 -60 -39 -193v-1169h-82v761h-89z" />
<glyph unicode="&#xe0;" horiz-adv-x="1054" d="M91 422q0 220 142 339q112 93 265 93q203 0 328 -163v145h82v-836h-82v150q-44 -66 -98 -103q-103 -69 -228 -69q-191 0 -311 145q-98 119 -98 299zM176 427q0 -171 99 -274q95 -99 228 -99q158 0 254 125q74 96 74 247q0 173 -104 263q-101 89 -225 89q-140 0 -240 -109 q-86 -94 -86 -242zM364 1191l86 54l187 -255l-60 -34z" />
<glyph unicode="&#xe1;" horiz-adv-x="1054" d="M91 422q0 220 142 339q112 93 265 93q203 0 328 -163v145h82v-836h-82v150q-44 -66 -98 -103q-103 -69 -228 -69q-191 0 -311 145q-98 119 -98 299zM176 427q0 -171 99 -274q95 -99 228 -99q158 0 254 125q74 96 74 247q0 173 -104 263q-101 89 -225 89q-140 0 -240 -109 q-86 -94 -86 -242zM443 990l187 255l86 -54l-213 -235z" />
<glyph unicode="&#xe2;" horiz-adv-x="1054" d="M91 422q0 220 142 339q112 93 265 93q203 0 328 -163v145h82v-836h-82v150q-44 -66 -98 -103q-103 -69 -228 -69q-191 0 -311 145q-98 119 -98 299zM176 427q0 -171 99 -274q95 -99 228 -99q158 0 254 125q74 96 74 247q0 173 -104 263q-101 89 -225 89q-140 0 -240 -109 q-86 -94 -86 -242zM278 1008l249 233l250 -233l-67 -52l-183 178l-182 -178z" />
<glyph unicode="&#xe3;" horiz-adv-x="1054" d="M91 422q0 220 142 339q112 93 265 93q203 0 328 -163v145h82v-836h-82v150q-44 -66 -98 -103q-103 -69 -228 -69q-191 0 -311 145q-98 119 -98 299zM176 427q0 -171 99 -274q95 -99 228 -99q158 0 254 125q74 96 74 247q0 173 -104 263q-101 89 -225 89q-140 0 -240 -109 q-86 -94 -86 -242zM277 1043q52 118 142 118q46 0 123 -36q87 -40 112 -40q49 0 85 79l53 -40q-40 -118 -144 -118q-37 0 -111 32q-99 44 -130 44q-49 0 -76 -78z" />
<glyph unicode="&#xe4;" horiz-adv-x="1054" d="M91 422q0 220 142 339q112 93 265 93q203 0 328 -163v145h82v-836h-82v150q-44 -66 -98 -103q-103 -69 -228 -69q-191 0 -311 145q-98 119 -98 299zM176 427q0 -171 99 -274q95 -99 228 -99q158 0 254 125q74 96 74 247q0 173 -104 263q-101 89 -225 89q-140 0 -240 -109 q-86 -94 -86 -242zM281 1084q0 30 22 52t52 22q32 0 53.5 -21.5t21.5 -52.5t-22 -53t-52 -22q-31 0 -53 22t-22 53zM621 1084q0 31 22 52.5t52 21.5q31 0 53 -21.5t22 -52.5t-22 -53t-53 -22t-52.5 22t-21.5 53z" />
<glyph unicode="&#xe5;" horiz-adv-x="1054" d="M91 422q0 220 142 339q112 93 265 93q203 0 328 -163v145h82v-836h-82v150q-44 -66 -98 -103q-103 -69 -228 -69q-191 0 -311 145q-98 119 -98 299zM176 427q0 -171 99 -274q95 -99 228 -99q158 0 254 125q74 96 74 247q0 173 -104 263q-101 89 -225 89q-140 0 -240 -109 q-86 -94 -86 -242zM371 1115q0 63 46.5 109t110.5 46q65 0 111 -45.5t46 -111.5q0 -65 -46 -111t-111 -46t-111 46.5t-46 112.5zM443 1113q0 -35 25 -60t60 -25q36 0 60.5 24.5t24.5 59.5t-25 59.5t-60 24.5t-60 -24.5t-25 -58.5z" />
<glyph unicode="&#xe6;" horiz-adv-x="1624" d="M91 238q0 126 119 205q89 60 249 60q85 0 145 -20t118 -67q-1 141 -51 233q-71 129 -240 129q-116 0 -283 -76v82q146 70 290 70q242 0 334 -232q40 79 84 122q51 51 125.5 80.5t149.5 29.5q139 0 248 -89q138 -112 153 -359h-719q5 -107 42 -180q40 -79 117 -126 q74 -45 161 -45q122 0 214 80q38 33 88 108l70 -47q-148 -218 -373 -218q-113 0 -204 55t-140 153q-22 -71 -72 -116q-105 -92 -274 -92q-172 0 -271 88q-80 73 -80 172zM176 241q0 -94 79 -141q74 -45 184 -45q142 0 214 62q64 55 64 129q0 84 -78 136q-66 44 -187 44 q-138 0 -215 -61q-61 -47 -61 -124zM820 484h619q-15 88 -50 144q-41 67 -111 108q-73 42 -151 42q-118 0 -202 -80.5t-105 -213.5z" />
<glyph unicode="&#xe7;" horiz-adv-x="902" d="M91 411q0 189 127 320q119 123 305 123q155 0 291 -107v-107q-68 68 -122 96q-82 42 -170 42q-156 0 -256 -117q-90 -105 -90 -247q0 -149 98 -253q102 -107 247 -107q168 0 304 151v-110q-142 -117 -305 -117q-132 0 -239 71q-106 70 -156 188q-34 82 -34 174zM302 -357 l168 261l91 -43l-196 -252z" />
<glyph unicode="&#xe8;" horiz-adv-x="990" d="M91 413q0 188 117 317q112 124 291 124q177 0 286 -122.5t113 -324.5h-718q5 -116 46 -189q42 -74 118 -119q77 -45 162 -45q123 0 211 80q39 35 85 112l70 -41q-128 -227 -371 -227q-197 0 -313 146q-97 120 -97 289zM186 485h619q-18 94 -61 157t-109 99 q-67 37 -138 37q-117 0 -204.5 -82.5t-106.5 -210.5zM334 1191l86 54l188 -255l-61 -34z" />
<glyph unicode="&#xe9;" horiz-adv-x="990" d="M91 413q0 188 117 317q112 124 291 124q177 0 286 -122.5t113 -324.5h-718q5 -116 46 -189q42 -74 118 -119q77 -45 162 -45q123 0 211 80q39 35 85 112l70 -41q-128 -227 -371 -227q-197 0 -313 146q-97 120 -97 289zM186 485h619q-18 94 -61 157t-109 99 q-67 37 -138 37q-117 0 -204.5 -82.5t-106.5 -210.5zM421 990l187 255l87 -54l-214 -235z" />
<glyph unicode="&#xea;" horiz-adv-x="990" d="M91 413q0 188 117 317q112 124 291 124q177 0 286 -122.5t113 -324.5h-718q5 -116 46 -189q42 -74 118 -119q77 -45 162 -45q123 0 211 80q39 35 85 112l70 -41q-128 -227 -371 -227q-197 0 -313 146q-97 120 -97 289zM186 485h619q-18 94 -61 157t-109 99 q-67 37 -138 37q-117 0 -204.5 -82.5t-106.5 -210.5zM255 1008l249 233l249 -233l-66 -52l-183 178l-182 -178z" />
<glyph unicode="&#xeb;" horiz-adv-x="990" d="M91 413q0 188 117 317q112 124 291 124q177 0 286 -122.5t113 -324.5h-718q5 -116 46 -189q42 -74 118 -119q77 -45 162 -45q123 0 211 80q39 35 85 112l70 -41q-128 -227 -371 -227q-197 0 -313 146q-97 120 -97 289zM186 485h619q-18 94 -61 157t-109 99 q-67 37 -138 37q-117 0 -204.5 -82.5t-106.5 -210.5zM257 1084q0 30 22 52t52 22q32 0 53.5 -21.5t21.5 -52.5t-22 -53t-52 -22q-31 0 -53 22t-22 53zM597 1084q0 31 22 52.5t53 21.5q30 0 52 -21.5t22 -52.5t-22 -53t-52 -22q-32 0 -53.5 22t-21.5 53z" />
<glyph unicode="&#xec;" horiz-adv-x="375" d="M-31 1191l86 54l187 -255l-60 -34zM147 0v836h82v-836h-82z" />
<glyph unicode="&#xed;" horiz-adv-x="375" d="M132 990l187 255l86 -54l-213 -235zM146 0v836h82v-836h-82z" />
<glyph unicode="&#xee;" horiz-adv-x="374" d="M-24 1008l211 233l211 -233l-65 -52l-146 170l-146 -170zM146 0v836h82v-836h-82z" />
<glyph unicode="&#xef;" horiz-adv-x="374" d="M-5 1084q0 31 22 52.5t53 21.5t52.5 -21.5t21.5 -52.5t-22 -53t-52 -22q-31 0 -53 22t-22 53zM147 0v836h82v-836h-82zM231 1084q0 30 22 52t52 22q32 0 53.5 -21.5t21.5 -52.5t-22 -53t-52 -22q-31 0 -53 22t-22 53z" />
<glyph unicode="&#xf0;" horiz-adv-x="1058" d="M91 415q0 188 133 314q129 123 303 123q175 0 314 -130q-60 197 -135.5 317.5t-207.5 230.5l-216 -120l-38 66l182 102q-106 69 -274 124l38 57q178 -48 317 -137l218 114l40 -64l-187 -101q147 -123 240 -292q70 -127 109.5 -278.5t39.5 -294.5q0 -242 -152 -368 q-121 -100 -283 -100q-209 0 -339 154q-102 120 -102 283zM176 421q0 -161 106 -267q100 -100 241 -100q171 0 279 130q80 95 80 231q0 159 -108 261q-106 100 -248 100q-164 0 -268 -127q-82 -100 -82 -228z" />
<glyph unicode="&#xf1;" horiz-adv-x="901" d="M146 0v836h82v-130q39 60 75 88q75 60 179 60q101 0 176 -56q53 -40 75 -101t22 -170v-527h-82v527q0 119 -30 170q-48 81 -171 81q-135 0 -200 -114q-25 -44 -34.5 -93.5t-9.5 -135.5v-435h-82zM193 1043q52 118 142 118q46 0 123 -36q87 -40 112 -40q49 0 85 79l53 -40 q-40 -118 -144 -118q-37 0 -111 32q-99 44 -129 44q-50 0 -77 -78z" />
<glyph unicode="&#xf2;" horiz-adv-x="1058" d="M91 423q0 180 134 309q128 122 305 122q186 0 317 -135q119 -122 119 -303q0 -208 -153 -335q-124 -103 -287 -103q-119 0 -225 64q-107 64 -162 172q-48 93 -48 209zM176 422q0 -161 106 -267q100 -101 241 -101q170 0 279 130q79 96 79 232q0 159 -107 261 q-106 101 -249 101q-163 0 -267 -127q-82 -101 -82 -229zM356 1191l86 54l187 -255l-60 -34z" />
<glyph unicode="&#xf3;" horiz-adv-x="1058" d="M91 423q0 180 134 309q128 122 305 122q186 0 317 -135q119 -122 119 -303q0 -208 -153 -335q-124 -103 -287 -103q-119 0 -225 64q-107 64 -162 172q-48 93 -48 209zM176 422q0 -161 106 -267q100 -101 241 -101q170 0 279 130q79 96 79 232q0 159 -107 261 q-106 101 -249 101q-163 0 -267 -127q-82 -101 -82 -229zM455 990l187 255l87 -54l-214 -235z" />
<glyph unicode="&#xf4;" horiz-adv-x="1058" d="M91 423q0 180 134 309q128 122 305 122q186 0 317 -135q119 -122 119 -303q0 -208 -153 -335q-124 -103 -287 -103q-119 0 -225 64q-107 64 -162 172q-48 93 -48 209zM176 422q0 -161 106 -267q100 -101 241 -101q170 0 279 130q79 96 79 232q0 159 -107 261 q-106 101 -249 101q-163 0 -267 -127q-82 -101 -82 -229zM279 1008l250 233l249 -233l-67 -52l-182 178l-183 -178z" />
<glyph unicode="&#xf5;" horiz-adv-x="1058" d="M91 423q0 180 134 309q128 122 305 122q186 0 317 -135q119 -122 119 -303q0 -208 -153 -335q-124 -103 -287 -103q-119 0 -225 64q-107 64 -162 172q-48 93 -48 209zM176 422q0 -161 106 -267q100 -101 241 -101q170 0 279 130q79 96 79 232q0 159 -107 261 q-106 101 -249 101q-163 0 -267 -127q-82 -101 -82 -229zM285 1043q52 118 142 118q46 0 123 -36q87 -40 112 -40q49 0 85 79l52 -40q-39 -118 -143 -118q-37 0 -111 32q-99 44 -130 44q-49 0 -76 -78z" />
<glyph unicode="&#xf6;" horiz-adv-x="1058" d="M91 423q0 180 134 309q128 122 305 122q186 0 317 -135q119 -122 119 -303q0 -208 -153 -335q-124 -103 -287 -103q-119 0 -225 64q-107 64 -162 172q-48 93 -48 209zM176 422q0 -161 106 -267q100 -101 241 -101q170 0 279 130q79 96 79 232q0 159 -107 261 q-106 101 -249 101q-163 0 -267 -127q-82 -101 -82 -229zM284 1084q0 30 22 52t52 22q32 0 53.5 -21.5t21.5 -52.5t-22 -53t-52 -22q-31 0 -53 22t-22 53zM624 1084q0 31 22 52.5t52 21.5q31 0 53 -21.5t22 -52.5t-22 -53t-53 -22t-52.5 22t-21.5 53z" />
<glyph unicode="&#xf7;" d="M64 655v82h991v-82h-991zM485 472q0 31 22 52.5t53 21.5t53 -21.5t22 -52.5t-22 -53t-53 -22t-53 22t-22 53zM485 908q0 30 22 52t53 22t53 -21.5t22 -52.5t-22 -53t-53 -22t-53 22t-22 53z" />
<glyph unicode="&#xf8;" horiz-adv-x="1058" d="M83 27l106 111q-98 120 -98 280q0 188 134 314q129 122 303 122q154 0 279 -98l109 111l51 -49l-109 -110q108 -124 108 -293q0 -207 -153 -334q-124 -103 -282 -103q-160 0 -293 110l-110 -112zM176 418q0 -127 72 -225l498 509q-103 76 -221 76q-164 0 -267 -127 q-82 -101 -82 -233zM296 141q103 -87 230 -87q97 0 183 51q172 103 172 310q0 136 -84 238z" />
<glyph unicode="&#xf9;" horiz-adv-x="893" d="M146 309v527h82v-498q0 -131 28 -184q23 -45 75.5 -72.5t115.5 -27.5q62 0 114.5 27.5t75.5 72.5q28 53 28 184v498h82v-527q0 -88 -13 -137.5t-48 -90.5q-86 -103 -239 -103q-154 0 -241 103q-34 40 -47 90t-13 138zM269 1191l86 54l187 -255l-60 -34z" />
<glyph unicode="&#xfa;" horiz-adv-x="893" d="M146 309v527h82v-498q0 -131 28 -184q23 -45 75.5 -72.5t115.5 -27.5q62 0 114.5 27.5t75.5 72.5q28 53 28 184v498h82v-527q0 -88 -13 -137.5t-48 -90.5q-86 -103 -239 -103q-154 0 -241 103q-34 40 -47 90t-13 138zM371 990l187 255l87 -54l-214 -235z" />
<glyph unicode="&#xfb;" horiz-adv-x="893" d="M146 309v527h82v-498q0 -131 28 -184q23 -45 75.5 -72.5t115.5 -27.5q62 0 114.5 27.5t75.5 72.5q28 53 28 184v498h82v-527q0 -88 -13 -137.5t-48 -90.5q-86 -103 -239 -103q-154 0 -241 103q-34 40 -47 90t-13 138zM197 1008l249 233l250 -233l-67 -52l-183 178 l-182 -178z" />
<glyph unicode="&#xfc;" horiz-adv-x="893" d="M146 309v527h82v-498q0 -131 28 -184q23 -45 75.5 -72.5t115.5 -27.5q62 0 114.5 27.5t75.5 72.5q28 53 28 184v498h82v-527q0 -88 -13 -137.5t-48 -90.5q-86 -103 -239 -103q-154 0 -241 103q-34 40 -47 90t-13 138zM202 1084q0 30 22 52t53 22t52.5 -21.5t21.5 -52.5 t-22 -53t-52 -22q-31 0 -53 22t-22 53zM542 1084q0 31 22 52.5t52 21.5q31 0 53 -21.5t22 -52.5t-22 -53t-53 -22q-30 0 -52 22t-22 53z" />
<glyph unicode="&#xfd;" horiz-adv-x="877" d="M16 836h96l342 -742l311 742h95l-560 -1325h-93l204 475zM363 990l187 255l86 -54l-213 -235z" />
<glyph unicode="&#xfe;" horiz-adv-x="1054" d="M146 -489v1983h82v-808q44 65 98 100q103 68 228 68q191 0 311 -144q98 -119 98 -299q0 -220 -142 -339q-112 -94 -264 -94q-204 0 -329 167v-634h-82zM223 408q0 -173 104 -265q101 -89 225 -89q141 0 240 109q86 95 86 243q0 171 -99 274q-94 98 -228 98 q-156 0 -253 -124q-75 -96 -75 -246z" />
<glyph unicode="&#xff;" horiz-adv-x="877" d="M16 836h96l342 -742l311 742h95l-560 -1325h-93l204 475zM194 1084q0 30 22 52t52 22q32 0 53.5 -21.5t21.5 -52.5t-22 -53t-52 -22q-31 0 -53 22t-22 53zM534 1084q0 31 22 52.5t53 21.5q30 0 52 -21.5t22 -52.5t-22 -53t-52 -22q-32 0 -53.5 22t-21.5 53z" />
<glyph unicode="&#x152;" horiz-adv-x="2194" d="M109 681q0 158 71 302q85 176 249 283q179 118 391 118q258 0 459 -177q93 -82 153 -197v355h653v-82h-564v-495h550v-82h-550v-624h564v-82h-653v351q-69 -131 -179 -219q-195 -155 -432 -155q-180 0 -345 93q-187 105 -285 286q-82 153 -82 325zM200 688 q0 -282 206 -465q99 -89 224 -131q92 -32 182 -32q170 0 322 93q144 89 222 231q75 137 75 297q0 268 -196 453q-96 91 -221 133q-99 34 -194 34q-174 0 -323 -95q-143 -91 -222 -236q-75 -137 -75 -282z" />
<glyph unicode="&#x153;" horiz-adv-x="1778" d="M91 413q0 193 140 325q125 116 300 116q130 0 230.5 -63t160.5 -182q30 76 79 128q113 117 284 117q180 0 289 -120t112 -322h-717q3 -109 39 -180q41 -81 119 -129q79 -49 171 -49q96 0 166.5 47t123.5 148l69 -42q-123 -229 -367 -229q-126 0 -221 63.5t-147 183.5 q-41 -77 -89 -124q-126 -123 -306 -123q-192 0 -322 141q-114 124 -114 294zM176 418q0 -164 116 -271q99 -93 231 -93q107 0 199 60q161 104 161 294q0 164 -118 276q-97 93 -238 93q-162 0 -264 -124q-87 -107 -87 -235zM975 490h621q-15 85 -50 143q-40 68 -108.5 106 t-151.5 38q-124 0 -204 -73.5t-107 -213.5z" />
<glyph unicode="&#x178;" horiz-adv-x="1052" d="M27 1365h104l389 -685l400 685h105l-462 -782v-583h-89v583zM257 1591q0 31 23 54t56 23q32 0 55 -23t23 -55q0 -33 -23 -56t-55 -23q-33 0 -56 23t-23 57zM638 1591q0 31 23 54t56 23q32 0 55 -23t23 -55q0 -33 -23 -56t-55 -23q-33 0 -56 23t-23 57z" />
<glyph unicode="&#x2c6;" horiz-adv-x="1024" d="M263 1008l249 233l249 -233l-66 -52l-183 178l-182 -178z" />
<glyph unicode="&#x2dc;" horiz-adv-x="1024" d="M255 1043q52 118 142 118q46 0 123 -36q87 -40 112 -40q49 0 85 79l52 -40q-39 -118 -143 -118q-37 0 -111 32q-99 44 -130 44q-49 0 -76 -78z" />
<glyph unicode="&#x2000;" horiz-adv-x="887" />
<glyph unicode="&#x2001;" horiz-adv-x="1775" />
<glyph unicode="&#x2002;" horiz-adv-x="887" />
<glyph unicode="&#x2003;" horiz-adv-x="1775" />
<glyph unicode="&#x2004;" horiz-adv-x="591" />
<glyph unicode="&#x2005;" horiz-adv-x="443" />
<glyph unicode="&#x2006;" horiz-adv-x="295" />
<glyph unicode="&#x2007;" horiz-adv-x="295" />
<glyph unicode="&#x2008;" horiz-adv-x="221" />
<glyph unicode="&#x2009;" horiz-adv-x="355" />
<glyph unicode="&#x200a;" horiz-adv-x="98" />
<glyph unicode="&#x2010;" horiz-adv-x="344" d="M0 382v82h344v-82h-344z" />
<glyph unicode="&#x2011;" horiz-adv-x="344" d="M0 382v82h344v-82h-344z" />
<glyph unicode="&#x2012;" horiz-adv-x="344" d="M0 382v82h344v-82h-344z" />
<glyph unicode="&#x2013;" d="M255 382v82h609v-82h-609z" />
<glyph unicode="&#x2014;" horiz-adv-x="1034" d="M0 382v82h1034v-82h-1034z" />
<glyph unicode="&#x2018;" horiz-adv-x="465" d="M130 1034l152 410l54 -20l-123 -415z" />
<glyph unicode="&#x2019;" horiz-adv-x="465" d="M130 1029l123 415l83 -25l-152 -410z" />
<glyph unicode="&#x201a;" horiz-adv-x="465" d="M130 -281l123 415l83 -25l-152 -410z" />
<glyph unicode="&#x201c;" horiz-adv-x="702" d="M130 1034l152 410l54 -20l-123 -415zM367 1034l151 410l55 -20l-124 -415z" />
<glyph unicode="&#x201d;" horiz-adv-x="702" d="M130 1029l123 415l83 -25l-152 -410zM367 1029l123 415l83 -25l-152 -410z" />
<glyph unicode="&#x201e;" horiz-adv-x="702" d="M130 -281l123 415l83 -25l-152 -410zM367 -281l123 415l83 -25l-152 -410z" />
<glyph unicode="&#x2022;" horiz-adv-x="1365" d="M401 696q0 122 84 204q84 83 202 83q112 0 194 -83q83 -84 83 -203t-82 -203q-83 -84 -199 -84q-115 0 -198 83q-84 85 -84 203z" />
<glyph unicode="&#x2026;" horiz-adv-x="1312" d="M144 61q0 31 22 52.5t53 21.5t52.5 -21.5t21.5 -52.5t-22 -53t-52 -22q-31 0 -53 22t-22 53zM581 61q0 31 22 52.5t52 21.5q32 0 53.5 -21.5t21.5 -52.5t-22 -53t-52 -22q-31 0 -53 22t-22 53zM1018 61q0 31 22 52.5t53 21.5t53 -21.5t22 -52.5t-22 -53t-53 -22t-53 22 t-22 53z" />
<glyph unicode="&#x202f;" horiz-adv-x="355" />
<glyph unicode="&#x2039;" horiz-adv-x="494" d="M68 423l264 306l52 -49l-218 -257l218 -256l-52 -49z" />
<glyph unicode="&#x203a;" horiz-adv-x="494" d="M109 167l219 256l-219 257l52 49l264 -306l-264 -305z" />
<glyph unicode="&#x205f;" horiz-adv-x="443" />
<glyph unicode="&#x20ac;" d="M38 544l23 68h107q-1 22 -1 61q0 59 4 95h-133l23 68h117q25 171 85 290q68 135 181.5 206t261.5 71q222 0 343 -145l-30 -78q-51 59 -87 85q-92 67 -224 67q-184 0 -296 -127t-141 -369h639l-22 -68h-623q-1 -41 -1 -81t2 -75h569l-21 -68h-543l1 -7q16 -112 55 -206 q59 -137 152.5 -209.5t213.5 -72.5q162 0 312 122v-89q-141 -103 -318 -103q-287 0 -430 277q-68 130 -84 288h-135z" />
<glyph unicode="&#x2122;" horiz-adv-x="1477" d="M1 1293v72h464v-72h-195v-706h-76v706h-193zM545 587l92 841l333 -713l335 712l93 -840h-77l-63 568l-289 -613l-286 612l-61 -567h-77z" />
<glyph unicode="&#x25fc;" horiz-adv-x="835" d="M0 0v835h835v-835h-835z" />
<glyph unicode="&#xfb04;" horiz-adv-x="1244" d="M54 761v75h93v397q0 138 42 197q61 87 177 87q34 0 73 -12v-75q-43 9 -65 9q-78 0 -111.5 -52t-33.5 -171v-380h196v-75h-196v-761h-82v761h-93zM490 761v75h92v397q0 138 42 197q61 87 178 87q34 0 73 -12v-75q-42 9 -65 9q-78 0 -112 -52t-34 -171v-380h211v-75h-211 v-761h-82v761h-92zM1016 0v1494h82v-1494h-82z" />
</font>
</defs>
</svg>
