<?xml version="1.0" standalone="no"?>
<!DOCTYPE svg PUBLIC "-//W3C//DTD SVG 1.1//EN" "http://www.w3.org/Graphics/SVG/1.1/DTD/svg11.dtd" >
<svg xmlns="http://www.w3.org/2000/svg" xmlns:xlink="http://www.w3.org/1999/xlink" version="1.1">
<metadata>
Created by FontForge 20170731 at Fri Feb  5 14:12:14 2016
 By Aleksey,,,
Modesty Copyright by MyCandyThemes
</metadata>
<defs>
<font id="ModestyRegularByMCT" horiz-adv-x="308" >
  <font-face 
    font-family="Modesty"
    font-weight="400"
    font-stretch="normal"
    units-per-em="1000"
    panose-1="2 0 5 6 0 0 0 2 0 2"
    ascent="750"
    descent="-250"
    x-height="282"
    cap-height="764"
    bbox="-1260.5 -444.429 945 939.783"
    underline-thickness="50"
    underline-position="-150"
    unicode-range="U+0020-FB00"
  />
<missing-glyph horiz-adv-x="0" 
 />
    <glyph glyph-name="ff" unicode="rr" horiz-adv-x="610" 
d="M618 245q2 -2 2 -8q-9 -25 -23 -59.5t-33.5 -66.5t-45 -55.5t-58.5 -26.5q-28 3 -42 26q-11 18 -16 39.5t-5 42.5q1 18 4 36.5t5 36.5q0 13 -12 15q-7 1 -15 0.5t-15 1.5t-12.5 5t-12.5 4q-9 1 -16 -7q-10 -13 -14 -24l-31 -56q-15 -24 -32.5 -48t-39 -43.5t-46.5 -32.5
t-55 -15q-8 0 -16 0.5t-16 3.5q-9 5 -15.5 13.5t-11.5 18.5q-5 21 -3 42q3 51 19.5 99t29.5 97q4 9 1 14q-2 3 -4.5 3t-6.5 2q-8 3 -17 6t-14 0q-3 -2 -6.5 -8t-5.5 -10q-6 -13 -13 -30.5t-26 -44.5q-2 2 -2 14t2 16q8 19 14 31t11 25q1 4 2.5 9.5t0.5 10.5q-1 7 -7 11.5
t-11 9.5q-29 22 -39 57q-5 16 -2 34t14 31t29.5 16.5t33.5 -5.5q14 -9 19.5 -25t6.5 -33q1 -12 -1 -24t-5 -24q-2 -7 -3.5 -14.5t2.5 -13.5q1 -2 8 -7q16 -8 33 -9.5t27 -15.5q9 -14 6 -31q-3 -13 -11 -31q-19 -45 -32 -91t-11 -94l2 -12t5 -11q8 -11 21.5 -10.5t25.5 5.5
q27 11 51 31t42 43q47 61 75 130q4 10 -3 20q-9 11 -18.5 19.5t-14.5 21.5q-12 22 -10 54q1 13 4.5 26.5t14.5 22.5q12 11 29.5 12.5t30.5 -9.5q8 -8 11 -18t4 -21q2 -23 -4 -45t-8 -44q-1 -11 10 -22q10 -7 27 -7q19 -2 39 0q40 0 35 -38q-1 -16 -5.5 -32t-6.5 -33
q-4 -30 -1 -70q2 -16 12.5 -26t24.5 -4q25 11 46 35t37 52.5t27.5 58t18.5 51.5q2 4 6 4t5 -2zM45 366q10 23 10 52q0 16 -11 33q-12 20 -34 10q-18 -10 -21 -31q-1 -2 -1 -6t-1 -7q2 -20 11.5 -33.5t24.5 -24.5q5 -3 12.5 -1t9.5 8zM338 347q3 21 -7 41q-4 6 -10.5 8.5
t-13.5 -0.5q-18 -8 -21 -26q-5 -22 -1 -45t22 -39q5 -4 10.5 -3t7.5 6q5 14 8 29t5 29z" />
    <glyph glyph-name=".notdef" horiz-adv-x="0" 
 />
    <glyph glyph-name=".null" horiz-adv-x="0" 
 />
    <glyph glyph-name="nonmarkingreturn" horiz-adv-x="201" 
 />
    <glyph glyph-name="space" unicode=" " horiz-adv-x="201" 
 />
    <glyph glyph-name="quotedbl" unicode="&#x22;" horiz-adv-x="191" 
d="M148 695q8 -23 -2.5 -38.5t-22.5 -28.5q-6 -9 -14 -15q-4 -2 -7.5 -3.5t-8.5 0.5q-3 2 -1.5 5.5t5 7.5t7.5 7.5t5 5.5q3 3 7 8t4 9q-1 6 -4.5 8t-6.5 4q-8 5 -12.5 14.5t0.5 18.5q2 8 10 16.5t19 6.5q10 -2 14.5 -10t7.5 -16zM62 721q11 -2 16 -10.5t9 -17.5
q5 -14 3.5 -24.5t-6.5 -19.5t-12 -17t-13 -16q-4 -5 -7.5 -9t-8.5 -7t-9 -4.5t-9 1.5q-4 1 -2 5t6 8.5t8.5 8.5t5.5 6q4 4 8 9.5t4 11.5q0 5 -3.5 7.5t-8.5 4.5q-9 6 -14 16.5t-1 21.5q5 9 14 18t20 7z" />
    <glyph glyph-name="numbersign" unicode="#" horiz-adv-x="483" 
d="M447 95q1 -1 3 -4t0 -3t-4.5 -0.5t-4.5 0.5q-20 1 -41.5 2t-40.5 -2q-11 -3 -14 -12q-2 -10 -1.5 -20.5t1.5 -21t0.5 -20.5t-4.5 -19q-5 -7 -7 -8q-4 -3 -12 -1t-13 8q-3 3 -5.5 7t-4.5 6q-8 19 -10.5 37t-6.5 35q0 4 -2 8t-13 4q-13 0 -28 -1t-32 -1q-14 0 -14 -12
q1 -15 1.5 -30t0.5 -31q0 -3 2 -13q0 -11 -14 -11q-17 1 -26 11t-13.5 23t-6 26t-2.5 20q-3 10 -12.5 13.5t-21 4t-23.5 0t-20 2.5q-1 2 -2.5 2.5t-1.5 2.5q-2 2 0 4t5 2h58q19 0 16 13q-4 33 -1.5 63t0.5 60q0 9 -7.5 12.5t-17.5 4t-20.5 0t-17.5 0.5h-13.5h-22t-20.5 1.5
t-9 4.5q0 6 4 6q26 2 54 2.5t56 0.5q15 0 18.5 14.5t3 32t0 32t10.5 14.5q6 0 13 1.5t12.5 0.5t9.5 -8t4 -23v-18t0.5 -9.5t0.5 -7.5v-13q1 -9 11 -13t23 -5.5t25.5 -1t18.5 0.5q13 0 15 9q4 15 3 38t1 39q1 10 14.5 10t22.5 -5q10 -6 10 -13q1 -18 0.5 -35t4.5 -37
q0 -2 3.5 -5.5t7.5 -3.5l31 -3q9 0 18 -1l18 -2q2 0 3 -1.5t3 -2.5q2 -2 0.5 -3.5t-3.5 -1.5q-2 -1 -9 -1q-16 1 -32 1.5t-30 -2.5q-12 -2 -12 -11q-1 -5 -1 -9.5v-9.5q2 -24 3 -48.5t3 -49.5q5 -17 24 -17q17 1 34 -0.5t36 -3.5q2 -1 5.5 -1.5t5.5 -2.5zM263 107
q21 5 21.5 18t0.5 29q0 41 -3 83q0 9 -9.5 13t-22.5 6t-26 1t-18 -1q-10 0 -15 -7t-6.5 -16t-1.5 -19v-16q1 -20 0 -39.5t6 -40.5q2 -5 8.5 -8.5t11.5 -3.5h27t27 1z" />
    <glyph glyph-name="dollar" unicode="$" horiz-adv-x="410" 
d="M360 140q13 -21 4.5 -45t-28 -46.5t-43 -40.5t-40.5 -26q-11 -5 -16.5 -12.5t-7.5 -17.5l6 -109q0 -6 -6 -7q-6 0 -6 6l-2 30q-1 5 -1 8.5v7.5l-4 70q-3 6 -10 10q-14 7 -30.5 12.5t-27.5 20.5q-2 4 -4 8.5t-3 9.5q-2 7 4 9t9 -3q5 -8 9 -14t6 -7q6 -5 13 -9.5t13.5 -5.5
t11.5 3t6 15l-10 158l-7 6q-3 1 -6.5 1h-5.5q-11 2 -20.5 0.5t-19.5 -3.5q-12 -2 -24 -2.5t-23 -0.5q-18 1 -32 11t-25 25t-18.5 32t-11.5 32q-10 42 -6 86t18 84q8 23 22.5 42t34.5 30q16 9 31 9.5t32 -0.5q20 -2 27.5 14t9.5 35q1 11 -0.5 24t-3.5 27q0 5 6 7q6 0 6 -6
l5 -77q1 -6 7 -12q7 -11 19 -18.5t23 -14.5q29 -14 52 -38q14 -14 25.5 -31.5t19.5 -35.5q1 -5 -2 -8q-1 -1 -3 -1q-7 0 -8 4q-5 10 -9.5 18.5t-11.5 16.5q-20 25 -45 44t-54 27q-6 1 -6 -5l8 -110q3 -45 5.5 -88.5t4.5 -65.5q0 -20 4.5 -25.5t24.5 -10.5q15 -2 31.5 -4.5
t31.5 -7.5t28.5 -13.5t22.5 -21.5zM189 192q2 1 6.5 2.5t6.5 3.5q1 1 -0.5 9.5t-2.5 10.5q0 4 -1 22t-3 42.5t-3.5 52.5t-3.5 52.5t-3 42.5t-1 23v12.5t-1 16t-3.5 13t-7.5 4.5q-19 3 -40.5 0.5t-38.5 -14.5q-14 -10 -21 -26t-11 -32q-5 -29 -10.5 -57t-4.5 -57
q-2 -25 3 -48t12 -46q2 -5 4.5 -8.5t4.5 -8.5q4 -11 18 -15q18 -9 39 -6q16 2 31.5 5t30.5 6zM328 106q9 21 -8 38q-10 13 -28 16q-14 4 -27 6.5t-25 5.5h-6q-10 -1 -13 -9q-3 -7 -3.5 -13.5t-0.5 -13.5q3 -26 3 -44v-4l5 -80q7 -7 16 -1l9 8q20 17 36.5 36.5t32.5 39.5
q4 6 9 15z" />
    <glyph glyph-name="percent" unicode="%" horiz-adv-x="336" 
d="M111 354q9 -11 6 -24q-2 -16 -11.5 -31.5t-26.5 -20.5q-14 -4 -27.5 2t-24.5 17q-13 12 -20.5 29t-0.5 35q5 17 18.5 27.5t32.5 5.5q10 -4 6 -13q0 -6 -3.5 -9t-6.5 -8q-4 -5 -5 -10t-3 -11q-5 -32 21 -49q11 -8 23 1q11 13 14 27q7 20 -13 31q-5 1 -11 5l-6 3
q-6 2 -6 7.5t5 7.5q11 5 21 11t21 12q13 8 28 17t30 13q5 1 17 1q8 0 16 -5.5t8 -12.5q4 -29 -3 -57.5t-11 -56.5q-5 -32 -9.5 -65t-9.5 -65q-5 -27 -8 -54t-5 -54q-2 -14 -2.5 -29.5t2.5 -29.5q3 -11 7.5 -12t9 3t8.5 11t6 13l11 22t4 23q-1 6 -4.5 11t-7 9t-6.5 8.5
t-3 10.5q0 12 5.5 20.5t13 11t16 -1t13.5 -15.5q3 -6 8.5 -9.5t11.5 -1.5q1 0 2.5 1t2.5 1q17 7 31 26q6 10 2.5 17.5t-11.5 12t-18 6t-17 -1.5q-5 -5 -9 0q-4 3 2 9q10 11 24.5 10t26.5 -9.5t17 -22t-4 -27.5q-8 -13 -17 -21t-22 -16q-5 -5 -21 -13t-21 -21q-2 -7 -3.5 -13
t-3.5 -12q-3 -9 -12.5 -26t-22 -30t-26 -17.5t-24.5 11.5q-6 9 -9 21.5t-4 25.5t-0.5 26t1.5 23q6 69 19 136.5t23 136.5q2 16 5 32.5t3 33.5q0 9 -10 6.5t-23 -10t-24 -16t-14 -10.5q-5 -5 -1 -11zM212 112q-3 -9 1 -15q0 -1 6 -5q1 3 0.5 6t0.5 5q-1 2 -1 5.5t-5 4.5
q-1 0 -1 -0.5t-1 -0.5z" />
    <glyph glyph-name="ampersand" unicode="&#x26;" horiz-adv-x="525" 
d="M467 130q-2 6 -2 10.5t-2 6.5q-7 6 -15.5 6t-16.5 -3q-23 -11 -46 -23.5t-44 -28.5q-6 -5 -6 -8q-3 -6 0 -11t4 -12q7 -31 0 -55.5t-22 -42.5t-35.5 -29.5t-40.5 -15.5q-23 -5 -46.5 -2t-44.5 13t-38 26.5t-26 38.5q-1 4 -2 6l-2 4q-13 33 -2 68.5t36 64.5q11 14 30 31
t38 27q6 6 0 8q-9 4 -22 11t-26.5 15t-26 16t-19.5 14q-26 20 -48 47t-30 60q-6 21 -5.5 46t6.5 49t17.5 45.5t28.5 36.5q7 6 13 10t13 9q23 15 51.5 23t55.5 3q29 -5 48 -30.5t26 -51.5v-5t-2 -4q-4 -1 -9 5q-7 11 -13.5 23t-14.5 23q-11 15 -26 19t-30 1t-29 -12.5
t-23 -22.5q-17 -25 -27.5 -57.5t-12.5 -66.5t6.5 -66.5t29.5 -56.5q13 -15 28 -27.5t32 -23.5q8 -7 17.5 -11.5t17.5 -11.5q8 -5 16.5 -5t17.5 1.5t18.5 3.5t18.5 1q6 -1 13.5 -3t12.5 -5.5t6.5 -9t-3.5 -14.5q-5 -7 -13 -8.5t-16 -0.5q-6 1 -11 2t-12 3q-26 9 -48 -12
q-17 -17 -34 -35t-28 -38.5t-14.5 -43.5t6.5 -49q7 -16 19.5 -29t28 -21t33 -10.5t34.5 1.5t31.5 14.5t24 25.5t14.5 32t3 35q-1 5 -2.5 10t-6.5 7q-8 3 -17 -3q-8 -5 -18 -7.5t-18 -0.5q-17 2 -21.5 15.5t9.5 21.5q6 4 14 4.5t16 0t16.5 -1.5t15.5 1q6 2 11 4.5l11 5.5
q19 13 37.5 25t38.5 23q9 4 19.5 7t20.5 3t19 -4t15 -14q7 -13 3 -25q0 -8 -8 -10t-11.5 4t-4.5 11zM295 84q-6 4 -15 3.5t-14 -5.5q-5 -3 -3 -6t7 -3q6 -1 13 1t12 7v3zM261 199q3 -1 13 -3t14 -2q2 1 4.5 1t3.5 2q2 3 -1.5 5t-5.5 2q-7 2 -14.5 0.5t-13.5 -3.5v-2z" />
    <glyph glyph-name="quotesingle" unicode="'" horiz-adv-x="109" 
d="M79 685q5 -14 3.5 -24.5t-6.5 -19.5t-12 -16.5t-14 -15.5q-4 -5 -7.5 -9t-7.5 -8q-5 -2 -9 -3.5t-9 0.5q-4 2 -2.5 6t5.5 8.5t8.5 8.5t6.5 6q3 3 7.5 9t4.5 11q0 6 -4 8.5t-8 5.5q-9 5 -14.5 15.5t-0.5 20.5q5 9 13.5 19t19.5 8t16.5 -11.5t9.5 -18.5z" />
    <glyph glyph-name="parenleft" unicode="(" horiz-adv-x="234" 
d="M289 796q3 0 3 -4q0 -5 -2 -5q-2 -2 -4 -2.5t-4 -1.5q-51 -5 -87 -24.5t-63 -64.5q-17 -27 -28.5 -59t-19.5 -66t-13 -68t-8 -65q-6 -52 -8.5 -106t1 -108t14.5 -106.5t32 -101.5q9 -22 21 -42.5t30 -37.5q17 -17 38 -33.5t40 -21.5q7 -2 9.5 -5.5t1 -6.5t-6 -4.5
t-10.5 0.5q-54 21 -94 62.5t-66 92.5q-31 60 -44 126.5t-18 135.5q-5 94 10 185.5t53 176.5q14 30 31.5 57t40.5 50q27 25 67.5 37.5t75.5 12.5q5 0 8 -3z" />
    <glyph glyph-name="parenright" unicode=")" horiz-adv-x="358" 
d="M156 745q24 -23 42 -50.5t32 -57.5q38 -85 52.5 -176.5t8.5 -184.5q-3 -67 -16.5 -134.5t-44.5 -127.5q-26 -51 -67 -92.5t-95 -61.5q-11 -4 -15.5 3.5t9.5 11.5q20 5 41.5 21t39.5 34q17 17 28.5 37t21.5 43q21 48 31.5 101t14.5 107t1.5 108t-8.5 105q-4 32 -9 66
t-13 67.5t-19.5 65.5t-28.5 61q-26 43 -62 63t-87 24q-3 0 -7 0.5t-4 8.5q0 2 2.5 6t9.5 3q35 -2 75.5 -14t66.5 -37z" />
    <glyph glyph-name="asterisk" unicode="*" horiz-adv-x="361" 
d="M318 334q4 -6 0.5 -12.5t-10 -12.5t-13.5 -11t-10 -8q-14 -13 -25.5 -25.5t-25.5 -24.5q-15 -14 -13 -27.5t11 -27t21.5 -26.5t19.5 -25q7 -11 2.5 -23t-20.5 -7q-14 5 -28.5 18.5t-25.5 22.5q-12 10 -24 19t-27 -3l-45 -35q-3 -3 -9.5 -9t-13.5 -10.5t-14 -6t-12 4.5
q-3 4 -1.5 10t5.5 12.5t8.5 12.5t7.5 9q8 11 21.5 25t16.5 28q2 7 -10.5 23t-29.5 33l-20.5 20.5t-23.5 21.5q-3 3 -4 8q-4 11 5 18.5t20 -0.5q7 -6 13 -12t13 -11q11 -10 23 -20t22 -17q7 -6 13 -6q5 1 7 5t4 9q3 9 4.5 25.5t2.5 34t1.5 32.5t1.5 20q3 6 8 9t10 2.5t9 -4.5
t4 -10q-1 -30 0 -55q1 -21 3.5 -38.5t8.5 -19.5q10 -5 26.5 9t34 30t33.5 26.5t25 -1.5z" />
    <glyph glyph-name="plus" unicode="+" horiz-adv-x="419" 
d="M352 239q2 -8 -4 -9q-3 -3 -10 -3q-23 0 -58 -1t-72 -2q0 -21 -0.5 -39t-0.5 -27t0.5 -21.5t0.5 -23.5t-1 -19t-4 -8q-11 -2 -18 0t-8 17q0 12 0.5 46t1.5 74q-26 -1 -49.5 -1.5t-41.5 -1t-29 -0.5h-12q-2 1 -4 1.5t-4 5.5q-1 5 2.5 7t7.5 2q32 1 65 2t65 1q0 38 1 70.5
t1 43.5q0 9 4.5 14t9.5 5.5t9.5 -4.5t4.5 -15v-14.5t-0.5 -27t-0.5 -34.5v-38q66 3 133 3q8 0 11 -3z" />
    <glyph glyph-name="comma" unicode="," horiz-adv-x="108" 
d="M55 50q0 -7 -4 -17q-3 -6 -8.5 -12.5t-10.5 -11.5l-13 -13l-4 -4q-4 -4 -8 -3q-5 1 -5 4t2 5q5 5 9 9.5t9 9.5q7 9 3 11.5t-9 10.5q-5 6 -6 12.5t4 13.5q4 5 11.5 8t15.5 1t11 -9.5t3 -14.5z" />
    <glyph glyph-name="hyphen" unicode="-" horiz-adv-x="365" 
d="M326 238q2 -2 0 -5.5t-4 -4.5q-4 -2 -9 -2h-291q-8 1 -9 9q0 5 3.5 7t7.5 2h145t147 -1q2 0 5.5 -1t4.5 -4z" />
    <glyph glyph-name="period" unicode="." horiz-adv-x="93" 
d="M27 22q-16 0 -18 15q-2 8 1 12q2 8 10 13.5t16 3.5q6 0 10 -8t2 -16q-2 -20 -21 -20z" />
    <glyph glyph-name="slash" unicode="/" horiz-adv-x="428" 
d="M-58 -3q-3 3 0 8.5t5 7.5q2 5 4.5 8t4.5 7q12 15 38.5 54.5t62.5 93.5t78 118.5l84 129t81.5 125t69.5 107t48 75l18 28.5q3 5 8 1t2 -8q-3 -5 -5.5 -9t-4.5 -9q-1 0 -1 -1q-118 -188 -239.5 -368t-242.5 -364q-2 -2 -4.5 -4t-6.5 0z" />
    <glyph glyph-name="zero" unicode="0" 
d="M262 392q8 -51 4.5 -103t-14.5 -101t-28.5 -99.5t-49.5 -89.5q-21 -23 -49 -17q-14 2 -28.5 6.5t-22.5 15.5q-32 35 -46.5 77.5t-20.5 87.5q-10 78 1.5 155t41.5 149l13.5 27t16.5 25q14 17 33 26t42 7t39.5 -15t28.5 -32t19.5 -40.5t12.5 -40.5q3 -10 4 -19.5t3 -18.5z
M62 142q6 -49 24 -97q6 -13 15.5 -26.5t21.5 -19.5q9 -4 18 -1t16.5 9.5t13.5 14.5t10 14q32 52 47.5 110t20.5 118q4 39 2.5 78.5t-11.5 78.5q-3 14 -8.5 33t-14.5 37t-21.5 31t-30.5 15q-17 2 -32 -14.5t-24 -29.5q-21 -33 -29 -72.5t-13 -78.5q-7 -49 -9.5 -99t4.5 -101z
" />
    <glyph glyph-name="one" unicode="1" horiz-adv-x="178" 
d="M94 615q2 4 9 11.5t15 9.5q2 1 9.5 1t12.5 -8q8 -11 6 -31q-1 -20 -8.5 -40.5t-16.5 -37.5q-7 -13 -14.5 -25.5t-15.5 -26.5q-5 -20 -7.5 -39t-3.5 -39q-1 -90 4 -178t16 -176q1 -10 4 -24t3 -26.5t-6 -21t-23 -6.5q-5 0 -8 5q-5 8 -6 24t-2 24q-2 28 -3.5 54.5
t-3.5 53.5q-2 32 -3.5 64t-3.5 64q-1 12 -2 30t-1.5 37t-1 37.5t-0.5 31.5q-4 -3 -9 -10t-10 -15l-12 -19q-2 -2 -4.5 -1.5t-3.5 1.5l-2 2q-1 1 -1 4q1 3 10 16.5t14 22.5q11 20 16.5 40t7.5 47q5 38 15 75t30 69zM103 597q-8 -21 -10.5 -43.5t-5.5 -45.5q-1 -3 0 -6.5
t4 -3.5t7 7t6.5 12t4.5 8q9 18 16.5 37t8.5 36q2 19 -5 24q-5 3 -8 2q-5 -1 -10 -10t-8 -17z" />
    <glyph glyph-name="two" unicode="2" horiz-adv-x="431" 
d="M410 157q3 -11 2 -24t-3 -23q-6 -33 -28 -61q-23 -27 -56.5 -42.5t-68.5 -17.5q-32 -1 -62.5 4t-61.5 15q-17 6 -30.5 -2.5t-27.5 -13.5q-30 -12 -59 6q-9 6 -12 15t-2 20q1 5 5.5 10t10.5 6q24 4 50 -7q1 -1 5.5 -3t9.5 -4t9.5 -3t5.5 0q24 23 43 52t36 58t32 58.5
t29 61.5q18 42 29.5 84.5t6.5 87.5q-2 21 -12 43t-30 33q-23 12 -48 11t-48 -18q-17 -13 -32 -33.5t-24 -43t-9 -44.5t14 -37q2 -4 5 -8t6 -7q2 -5 -2 -5h-1h-2q-19 13 -25 32.5t-3.5 40.5t12 41.5t20.5 35.5q13 17 28.5 30.5t35.5 23.5q26 11 57.5 6t54.5 -21q11 -8 20 -18
t15 -24q6 -15 9.5 -29.5t3.5 -30.5q2 -54 -14.5 -104.5t-39.5 -98.5t-54 -91t-69 -80l-5 -7q-1 -2 0 -5t2 -4q23 -10 50.5 -15.5t56 -5t55.5 8t48 23.5q27 21 41.5 54t6.5 67q0 6 -3.5 11.5t-8.5 3.5q-6 -2 -10 -9.5t-9 -5.5q-6 1 -5.5 5.5t1.5 7.5q4 11 15.5 14.5
t19.5 -2.5q9 -5 14 -22zM35 4q19 -2 33.5 3.5t12.5 11.5q-2 1 -3 2l-3 3q-11 5 -22.5 9t-25.5 3q-10 -1 -12 -8t3.5 -14.5t16.5 -9.5z" />
    <glyph glyph-name="three" unicode="3" horiz-adv-x="381" 
d="M334 178q-2 -33 -14.5 -63t-33 -55.5t-47.5 -46t-58 -33.5q-29 -11 -62 -17.5t-64 4.5q-20 7 -36 23.5t-18 37.5q-2 23 12 38q5 5 15.5 9t17.5 -2q6 -5 3.5 -8.5t-9.5 -4.5q-11 -2 -19 -13t-8 -22q1 -18 11.5 -28.5t25.5 -15.5t31.5 -5.5t29.5 1.5q37 5 71 22.5
t59.5 44.5t39.5 62t11 75q-1 18 -3 37t-9 36q-11 34 -38 50.5t-61 1.5q-3 -1 -8.5 -4l-11 -6t-10.5 -4.5t-8 0.5q-2 2 -2.5 7t1.5 7q17 39 29 79t7 85q-1 12 -8 22.5t-19 14.5q-18 5 -32.5 -8t-22.5 -27q-6 -10 -11 -20.5t-9 -22.5q-1 -4 -3.5 -11.5t-4.5 -14.5
q-1 -5 -5.5 -3t-2.5 5q0 2 4.5 16.5t8.5 23.5q9 25 24 48q12 15 29.5 24t36.5 3q31 -11 45 -37q9 -17 10 -35.5t-2.5 -37.5t-10.5 -37.5t-14 -33.5q-1 -3 -1.5 -6.5t8.5 -1.5q16 3 34.5 0t35.5 -10.5t30.5 -20t19.5 -28.5q20 -52 16 -94z" />
    <glyph glyph-name="four" unicode="4" horiz-adv-x="445" 
d="M414 304q3 -8 -1 -17q-5 -14 -16 -29t-25 -23q-12 -7 -13 -22q-5 -63 -6.5 -124t-2.5 -124q0 -11 -8 -18.5t-22 -5.5q-7 1 -12 11q-2 5 -2.5 11t-0.5 11q0 60 1 117.5t5 117.5q0 4 -3 7.5t-8 3.5q-28 2 -56.5 2.5t-55.5 8.5q-16 3 -25 -6q-14 -14 -30.5 -17t-34.5 1
q-11 2 -26.5 3.5t-30 5.5t-25.5 11.5t-14 21.5q-2 11 4 20.5t18 11.5q17 2 37 0t36 -7l15 -5t18.5 -5t18.5 -1t14 7l10 14q36 78 60.5 161.5t45.5 165.5q2 5 3 8.5t3 7.5q4 8 12.5 8.5t13.5 -5.5q6 -8 6 -12q5 -17 0 -29q-13 -45 -24 -87.5t-27 -85.5q-31 -81 -73 -159
q-2 -2 0 -5.5t4 -4.5q21 -6 42.5 -7.5t43.5 -3.5h9.5t9.5 2q11 3 13.5 12t7.5 17q5 16 12 28q5 9 13 14.5t18 10.5q15 5 30 0.5t18 -18.5zM131 234q2 2 1 6t-4 5q-20 8 -40 14.5t-43 5.5h-7q-9 -1 -11.5 -5.5t-1 -9t6 -9t10.5 -5.5q17 -3 33 -6.5t32 -6.5q16 -2 24 11z
M391 293q-1 5 -4 8t-9 -3q-2 -2 -5.5 -8.5t-5 -13t-0.5 -10.5t8 -1q5 3 9.5 11t6.5 13v4z" />
    <glyph glyph-name="five" unicode="5" horiz-adv-x="282" 
d="M255 258q5 -55 -10 -111t-53 -99q-14 -16 -36 -33t-42 -23q-17 -6 -35.5 -7.5t-34 3.5t-26.5 17.5t-14 33.5q-1 7 5 7q2 0 3.5 -1.5l2.5 -2.5q12 -37 35 -41.5t47.5 8.5t47 37t33.5 44q20 38 28.5 81.5t4.5 86.5q-2 16 -10 30t-19 24t-25.5 14.5t-30.5 1.5t-28.5 -9
t-22.5 -13.5t-19 -16t-18 -15.5q-2 -1 -5 -2t-6 0q-6 1 -10 7.5t-5 13.5q-3 27 -1 66.5t5 76t6.5 63t3.5 27.5q2 5 7.5 6t10.5 2q40 6 79 8t79 0q3 0 7 -0.5t6 -2.5q2 -1 2 -4t-2 -5t-3.5 -1.5t-3.5 0.5q-29 2 -59.5 -1t-64.5 -5q-4 0 -8.5 -0.5t-6.5 -4.5q-6 -6 -6 -17
q-8 -51 -12 -100.5t-5 -101.5q21 19 47 32t53 15q52 4 78.5 -22t30.5 -66z" />
    <glyph glyph-name="six" unicode="6" horiz-adv-x="304" 
d="M265 531q17 -14 25.5 -34t12.5 -41q2 -6 -5 -7.5t-9 4.5q-6 17 -10.5 33t-16.5 30t-28 22t-35 6q-15 -1 -28 -9t-23.5 -19t-19 -24.5t-14.5 -25.5q-32 -64 -51 -132t-15 -141q0 -6 2 -19t4.5 -27.5t5 -27.5t4.5 -17q3 12 7 20.5t9 18.5q8 14 17 25.5t20 18.5q22 19 55 22
q41 3 66 -22q17 -17 24.5 -44.5t4.5 -59.5q-3 -41 -34 -69q-15 -14 -35.5 -24t-42.5 -14t-43.5 0.5t-38.5 18.5q-2 1 -5.5 4.5l-7.5 7.5l-9 10l-3 -12q-2 -5 -2.5 -10t-1.5 -8q-5 -5 -8 -5q-4 4 -4 8l12 41q-2 2 -6 12l-6 15q-20 45 -26 94t-1.5 98t18.5 96.5t34 90.5
q19 42 46.5 75.5t75.5 43.5q23 5 46 -1t40 -22zM173 196q-23 -2 -40 -12.5t-30 -26.5t-21.5 -36.5t-14.5 -42.5q0 -3 3 -10.5t6.5 -16t7.5 -16.5t6 -11q9 -13 21 -23.5t26 -13.5q20 -5 41 3.5t37 19.5q17 14 28 32t13 40q2 30 -4.5 55t-20.5 40q-22 22 -58 19z" />
    <glyph glyph-name="seven" unicode="7" horiz-adv-x="273" 
d="M311 549q6 -9 2.5 -15t-11 -9.5t-17 -5.5t-15.5 -3q-11 0 -17 -10l-6 -6l-3 -4q-17 -22 -27 -46.5t-20 -50.5q-11 -28 -21.5 -55t-21.5 -56q-22 -57 -44.5 -113t-42.5 -113q-6 -16 -10.5 -31t-11.5 -30q-4 -10 -10.5 -20.5t-21.5 -3.5q-11 5 -9 16t6 21q27 78 56.5 156.5
t63.5 156.5q20 45 38.5 86.5t43.5 83.5q4 6 2 11q-2 3 -5.5 3.5t-6.5 0.5q-19 2 -37 3t-37 1q-13 0 -29 0.5t-28 -6.5q-10 -6 -12 -17.5t-2 -22.5q1 -7 -5 -7q-5 0 -6 2t-1 5q-2 13 0.5 27.5t12.5 24.5q10 9 24 9.5t27 0.5h34.5t34.5 -1q16 -1 35 -3t31 10q5 4 9.5 8t9.5 8
q9 8 24.5 7t23.5 -12zM296 535q2 2 2 5t-5 4q-8 0 -13 -8q-1 -2 -0.5 -2.5t0.5 -1.5q5 0 8.5 1t7.5 2z" />
    <glyph glyph-name="eight" unicode="8" horiz-adv-x="264" 
d="M173 567q-5 4 -1.5 10t9.5 8q14 6 29 2t26 -14q7 -6 12.5 -18t6.5 -22q2 -13 -1 -26.5t-8 -25.5q-20 -60 -53 -111.5t-65 -105.5q-3 -7 -4 -13.5t4 -13.5q11 -20 23.5 -38.5t24.5 -38.5q19 -27 14 -64q-4 -46 -30.5 -82t-74.5 -44q-27 -5 -44.5 4.5t-27 26.5t-11 39.5
t4.5 43.5q9 34 26.5 63.5t37.5 56.5q17 23 2 45q-22 31 -39 69t-17 75q0 18 5 37.5t14.5 37t22.5 31.5t30 23q15 7 31.5 7.5t31.5 -5t25.5 -17t13.5 -29.5q0 -5 1 -11t-4 -9q-8 -8 -12 4q-5 20 -13 34.5t-31 19.5q-18 4 -32.5 -4.5t-24.5 -22.5t-16 -31.5t-7 -31.5
q-4 -39 12 -73t34 -67q1 -5 6 -10q2 -5 6 -5t7 3l14 19q18 29 35.5 58.5t34.5 59.5q19 40 35 80q5 14 6 28.5t-5 28.5q-6 13 -20 20t-28 2q-3 -2 -7.5 -3.5t-8.5 0.5zM135 158q-8 14 -18 25.5t-19 22.5q-4 1 -8 0q-1 -3 -6 -8q-15 -23 -29.5 -45.5t-25.5 -47.5
q-5 -11 -9 -24t-5.5 -26.5t1 -26t10.5 -22.5q11 -16 27 -21t33 -2t33 12.5t27 22.5q13 16 17.5 34t1.5 36t-11 35.5t-19 34.5z" />
    <glyph glyph-name="nine" unicode="9" horiz-adv-x="315" 
d="M300 540q4 -9 0 -21t-6 -21q-19 -55 -34 -111t-27 -113q-14 -66 -23 -132.5t-8 -135.5q0 -9 -2.5 -20t-11.5 -13q-8 -3 -17 0t-11 11q-3 10 -4 24.5t-0.5 29.5t1.5 30t2 26q2 33 6.5 64.5t9.5 63.5q2 10 5.5 29t7 39t7 37.5t5.5 23.5q-7 -12 -22 -30t-34 -34t-39 -25.5
t-36 -4.5q-34 10 -49.5 33.5t-17 53t9.5 62.5t29.5 62.5t41.5 52t46 31.5q9 4 19 7t19 6q22 7 36 -1t22 -24t11.5 -36t4.5 -36l8 26q4 11 8 23t7 22q2 10 12.5 12t17.5 -5q4 -2 6 -6zM228 489q-1 10 -4.5 22.5t-9.5 23t-16 15.5t-23 0q-45 -16 -71.5 -54.5t-40.5 -83.5
q-4 -14 -8 -34.5t-3 -40.5t9.5 -36t28.5 -21q12 -3 27 5.5t29 21.5t25.5 27.5t17.5 23.5q15 26 27 55.5t12 60.5v15z" />
    <glyph glyph-name="colon" unicode=":" horiz-adv-x="145" 
d="M38 245q-18 -2 -22 11q-3 5 -3 13t3 15.5t9 12.5t16 5q15 1 21 -7t4.5 -18.5t-9 -20t-19.5 -11.5zM41 148q15 1 21 -7t4.5 -18.5t-9 -20t-19.5 -11.5q-18 -2 -22 11q-7 12 -0.5 29t25.5 17z" />
    <glyph glyph-name="semicolon" unicode=";" horiz-adv-x="171" 
d="M76 163q13 1 20 -7.5t7 -19.5q0 -14 -7.5 -25.5t-15.5 -22.5q-9 -11 -18.5 -21t-19.5 -20q-2 -2 -7 -6.5t-11 -8.5t-11.5 -4.5t-6.5 6.5q-2 6 4.5 10t9.5 7q9 5 20 16q2 3 7 8t9.5 10t8 10.5t2.5 10.5q-2 5 -6.5 7t-8.5 5q-5 5 -5 11t2 12q4 22 27 22zM73 241
q-17 -3 -21 10q-7 13 -0.5 29.5t24.5 17.5q15 0 21 -8t4.5 -18.5t-9 -19.5t-19.5 -11z" />
    <glyph glyph-name="less" unicode="&#x3c;" horiz-adv-x="362" 
d="M41 370q-7 -11 -3 -17t12 -16q22 -27 54 -68l64 -82t58 -74.5t36 -45.5q19 -23 38 -47.5t41 -44.5q2 -2 6 -5t7 -7t4 -7.5t-4 -6.5q-4 -2 -9.5 2t-11.5 9.5t-11 11.5t-7 9q-7 7 -31 35t-56 67t-67.5 82.5t-67 82.5t-54.5 67.5t-29 36.5q-9 11 -7.5 20.5t9.5 21.5
q2 3 17.5 23t39 50.5t52.5 68t59 76.5q35 46 75 97t85 108q4 6 11 6.5t12.5 -3t8 -9.5t-1.5 -13q-2 -2 -26.5 -33t-60.5 -77t-77.5 -100t-77.5 -101t-60.5 -80t-26.5 -37z" />
    <glyph glyph-name="equal" unicode="=" horiz-adv-x="358" 
d="M34 255q-9 3 -7 9.5t10 6.5h243q7 1 7 -7t-6 -8q-1 0 -19.5 -0.5t-45.5 -0.5t-58.5 -0.5t-58.5 -0.5h-45.5t-19.5 1zM34 138q-9 3 -7 9.5t10 6.5h243q7 1 7 -7t-6 -8q-1 0 -19.5 -0.5t-45.5 -0.5t-58.5 -0.5t-59 -0.5h-45.5t-19 1z" />
    <glyph glyph-name="greater" unicode="&#x3e;" horiz-adv-x="451" 
d="M337 328q-2 3 -17 22.5t-38.5 50t-52.5 68t-59 77t-59 76.5t-51.5 66.5t-36.5 48t-15 20.5q-4 7 -1.5 13t8 9.5t12 3t10.5 -6.5l160 -205q30 -39 59.5 -77t53 -68.5t39 -50.5t17.5 -23q8 -11 9.5 -21t-8.5 -21q-6 -8 -28.5 -36t-54 -66.5t-67.5 -82t-68 -82t-55.5 -67
t-30.5 -36.5q-3 -3 -7.5 -9t-10.5 -12t-11.5 -9.5t-9.5 -1.5q-5 2 -4 5.5t4 7.5t7 7.5t6 5.5q21 20 40.5 44t38.5 47q10 12 36 46t58 75l64 82t54 67q8 11 11.5 16.5t-2.5 16.5z" />
    <glyph glyph-name="at" unicode="@" horiz-adv-x="401" 
d="M250 418q25 0 47 -10.5t36 -31.5q22 -34 21 -77.5t-23 -75.5q-14 -23 -34 -24.5t-33 22.5q-5 9 -11 8q-2 0 -2.5 -1.5t-2.5 -2.5q-8 -11 -15 -24t-15 -25.5t-17.5 -23t-22.5 -16.5q-14 -7 -28.5 -6.5t-25.5 10.5q-11 9 -14 20.5t-0.5 24t7.5 24.5t11 22q8 14 19 27t25 21
t31 10t31 -6q12 -8 22.5 -14.5t16.5 -18.5q3 -9 5.5 -20t13.5 -14q8 -4 15.5 1t13.5 12q10 13 13 29t3 33q2 21 -2.5 42t-18.5 37q-24 22 -58 22t-62 -13q-34 -14 -58.5 -43.5t-40.5 -61.5q-20 -43 -29 -90t-4 -95q5 -42 34 -70q15 -13 33.5 -18.5t37.5 -4.5t37 8t32 21
q14 13 23 28.5t19 31.5q0 3 7 3q5 -3 4 -6l-2 -6q-12 -25 -29 -44.5t-38.5 -32t-46.5 -15.5t-53 5q-16 4 -33 11.5t-32 18t-26.5 23.5t-17.5 29q-7 19 -9 43t0 43q2 18 6.5 34t11.5 33q11 29 27 57t36 53q12 17 31 32t41.5 26.5t46.5 18.5t46 7zM230 243q-3 8 -1 15.5
t-9 9.5q-5 1 -13 -2q-8 -4 -13 -11q-11 -15 -22 -29.5t-17 -31.5q-2 -6 -2.5 -15.5t2.5 -17t9 -10.5t16 3q13 7 23 22t18 28q5 10 9 19t0 20z" />
    <glyph glyph-name="A" unicode="A" horiz-adv-x="429" 
d="M363 596q-7 -21 -14 -41.5t-13 -42.5q-3 -11 -6 -44t-6 -70.5t-5 -70.5t-3 -44q-1 -8 -3.5 -36t-4 -64.5t-1.5 -77t4 -73t13.5 -52.5t26.5 -16q2 1 4.5 2t5.5 0q8 -2 8 -13q-5 -8 -12 -12q-17 -8 -36 -1t-31 22t-17.5 33t-7.5 38q-12 85 -6 168.5t17 168.5
q-14 -30 -29.5 -70.5t-33 -84.5t-38 -88t-44.5 -81q-5 -8 -10.5 -15t-13.5 -12q-18 -11 -40 -5t-36 23q-13 16 -18.5 37t-7.5 41q-8 76 2.5 150.5t37.5 146.5q10 27 26 62.5t38 67t51 53t65 21.5q23 -2 42.5 -15.5t26.5 -35.5q8 11 12.5 22.5t10.5 22.5q5 11 14 20t23 10
q10 1 14 -4q6 -7 1 -18q-2 -6 -3 -11t-3 -11zM344 615q-4 -11 -5.5 -20.5t0.5 -20.5q7 11 10 22.5t6 23.5q-1 0 -1 1t-0.5 1t-0.5 2q-2 2 -2 -1q-6 -4 -7 -8zM272 397q9 25 15 51t7 53q0 17 -2.5 33.5t-9.5 30.5q-9 15 -23 25.5t-31 10.5q-29 2 -49.5 -19.5t-34.5 -45.5
q-32 -52 -51 -112q-20 -58 -30 -118t-15 -120q-2 -28 -3 -55t3 -54q1 -10 3.5 -20t8.5 -18q7 -8 17 -12t19 0q9 5 17 16q21 30 37.5 62.5t31 66.5t28 69t27.5 69q9 22 18 43t17 44z" />
    <glyph glyph-name="B" unicode="B" horiz-adv-x="713" 
d="M724 246q3 -3 1 -8q-8 -12 -16 -23q-7 -10 -14 -19.5t-12 -15.5q-11 -13 -25.5 -24t-25.5 -24q-4 -4 -8 -9.5t-4 -10.5q-8 -44 -29.5 -86.5t-61.5 -69.5q-6 -5 -12.5 -7.5t-14.5 -4.5t-22.5 -2t-28 3t-23 10t-7.5 19t8.5 21.5t16.5 17.5q14 11 26 21.5t26 20.5
q19 15 38 26.5t36 28.5q12 12 14 32q1 22 -7.5 42.5t-23.5 37t-35.5 28.5t-43.5 18q-7 2 -12 -2t-10.5 -7.5t-10.5 -8.5q-7 -7 -20 -7.5t-16 13.5q-5 22 15 30q11 5 24 6.5t20 14.5q10 20 19 41q12 26 22.5 52t19.5 51q3 7 4.5 19t-0.5 23.5t-8.5 19t-19.5 4.5
q-12 -3 -23.5 -11t-21 -19t-17 -23.5t-12.5 -22.5q-40 -78 -59 -166q-4 -21 -3.5 -43t0.5 -45v-45.5t-1 -46.5q-1 -35 -1 -71.5t-9 -70.5q-5 -16 -19 -28.5t-32 -12.5q-19 0 -33 7.5t-25 20t-19.5 28t-14.5 30.5q-3 6 -6.5 14t-7.5 16q-7 16 -24 18q-10 2 -20 5t-19 6
q-15 6 -27 9q-24 5 -48.5 7.5t-49.5 2.5q-45 0 -91.5 -7.5t-100.5 -24.5q-51 -16 -100 -36t-97 -40q-44 -19 -88.5 -37.5t-90.5 -33.5q-27 -9 -65 -19.5t-84.5 -20t-99 -16t-107.5 -6.5q-7 0 -10 1q-105 0 -187 29q-92 33 -148 101q-5 4 0 9q5 4 10 -1q102 -123 325 -125
q55 -1 108.5 5t101 15.5t86.5 20.5t66 20q45 15 89.5 33t88.5 37q48 20 97.5 40t100.5 36q108 33 196 33q49 0 101 -11q7 -2 13.5 -4t14.5 -4q6 -2 14 -4t15 -4q5 -1 8.5 2.5t1.5 8.5q-3 9 -6.5 22t-7 27t-6 28t-2.5 25q0 13 1.5 29t7 29.5t16 23t27.5 11.5q34 4 55 -29
q14 -22 15 -49t-6.5 -53.5t-22.5 -50.5t-33 -40q-2 -2 -2.5 -6.5t0.5 -6.5q7 -17 13.5 -34t15.5 -33q4 -6 11 -14.5t15.5 -15t18 -9t17.5 3.5q13 9 16.5 27.5t2.5 32.5q-1 111 3 222t-3 222q0 3 -3 3q-2 1 -10 -5t-18 -14t-19.5 -15.5t-12.5 -10.5t-6.5 -2.5t-4.5 6.5
q2 4 5 6q13 11 27.5 22.5t33.5 30.5q9 9 9 21v15q0 9 4.5 24t12 27t18.5 17.5t25 -5.5q13 -13 5.5 -27.5t-16.5 -26.5q-5 -7 -7 -11t-3 -8t-0.5 -10t0.5 -16v-27t0.5 -34.5t1 -32.5t1.5 -19q0 -2 1 -2q3 0 4 2q8 17 14 36t15 39t20 38.5t25 35.5q15 18 35 32t45 7
q20 -5 31 -19q8 -10 8 -22t-2 -26q-5 -35 -22.5 -70t-36.5 -66q-4 -6 -8 -12.5t-9 -14.5q-1 -2 -2 -3.5t-1 -3.5t1 -5t3 -3q7 -4 17 -6q43 -9 75.5 -37.5t40.5 -73.5q1 -5 2.5 -12t7.5 -3q9 5 14 9.5t10 8.5q8 6 17.5 18t18.5 24t15 21l6 9q2 3 5 4t6 -2zM374 545
q-3 1 -4.5 -1.5t-2 -7t0 -8.5t1.5 -5q12 3 10 17q0 2 -5 5zM173 187l2 -30t5 -30q1 -3 4 -15.5t8 -20.5q3 -4 5.5 -5.5t6.5 2.5q5 5 7 11t4 13q5 14 9 26.5t9 25.5q5 15 8 34t-2 34q-4 12 -13 18t-18.5 5t-18 -7.5t-11.5 -18.5q-3 -11 -4.5 -21t-0.5 -21zM429 262q1 0 3 1
t2 2q0 7 -6 3q-5 0 -3 -4q0 -2 1.5 -3t2.5 1zM578 88q1 7 -5 2q-3 -2 -7 -4.5t-7 -4.5q-5 -3 -20 -14.5t-31 -23.5t-28.5 -22t-13.5 -11q-5 -3 -9 -7q-4 -3 -8.5 -7t-6.5 -7q-11 -18 -3 -23.5t24 -3.5t34 9t26 15q20 19 35.5 46t19.5 56z" />
    <glyph glyph-name="C" unicode="C" horiz-adv-x="449" 
d="M422 61q2 -2 2.5 -6t-4.5 -9q-14 -16 -29.5 -34.5t-33 -34.5t-37.5 -27t-44 -13q-35 -3 -72 8t-70.5 32t-60 49.5t-39.5 61.5q-26 63 -31 132.5t4 135.5q6 43 24.5 87.5t48 81t68.5 60.5t87 27q33 3 65.5 -4.5t62.5 -21.5q16 -8 26 -18q8 -9 2.5 -11.5t-13.5 2.5
q-31 20 -67 28.5t-72 5t-68.5 -20t-56.5 -46.5q-32 -42 -45 -91t-18 -100q-6 -55 -2.5 -110t23.5 -107q11 -30 28.5 -58t41 -50t52 -36.5t61.5 -17.5q27 -3 49 5.5t40.5 23.5t34.5 34.5t31 38.5q3 5 6.5 4.5t5.5 -1.5z" />
    <glyph glyph-name="D" unicode="D" horiz-adv-x="525" 
d="M468 228q0 -57 -13.5 -113.5t-49.5 -101.5q-14 -18 -33 -34.5t-40.5 -26.5t-45 -12t-47.5 9q-18 8 -27.5 22.5t-15.5 31.5q-2 6 2 10q0 3 3 3q0 2 2.5 1t2.5 -3q1 -3 2 -5.5t2 -4.5q4 -17 18 -30q4 -5 15 -9q23 -5 46.5 2t43.5 21.5t36 33.5t24 39q23 51 35 100t7 104
q-2 51 -19.5 99t-49.5 90q-14 17 -33 31t-40.5 21.5t-44 6t-43.5 -16.5q-3 -2 -6 -4.5t-4 -7.5q-4 -6 -2 -19q2 -9 2 -18.5t1 -19.5q8 -103 3.5 -205.5t-27.5 -204.5q-2 -10 -5 -22.5t-8.5 -24t-13 -20.5t-19.5 -12q-14 -5 -26.5 1t-21.5 17t-13.5 24t-7.5 27
q-25 112 -5 225t83 210q7 9 12.5 18t7.5 19q1 8 1 15v14q-2 20 -7 38.5t-13 37.5q-5 15 -17 28.5t-29 11.5q-11 -2 -19.5 -9.5t-13.5 -15.5q-43 -61 -48 -136q0 -4 -2.5 -4.5t-3.5 1.5q-3 4 -3 9q2 32 12 64t27 59q9 17 23.5 31t33.5 16q20 2 38.5 -11.5t27.5 -32.5
q10 -18 14 -38t10 -40q2 -5 5 -7q6 -2 13 4q32 20 66.5 15t66 -25t56.5 -49.5t39 -57.5q19 -38 27.5 -81t8.5 -88zM114 -38q6 9 9.5 22.5t5.5 20.5q6 15 9.5 30.5t7.5 32.5q5 32 8.5 64.5t5.5 64.5q4 58 2.5 115.5t-6.5 115.5q0 21 -15 2l-12 -18q-48 -85 -65 -180.5
t-3 -191.5q1 -8 3 -22t6.5 -28t12 -24t19.5 -10q4 0 12 6z" />
    <glyph glyph-name="E" unicode="E" horiz-adv-x="388" 
d="M504 -162q1 -20 -4.5 -40t-16.5 -37q-23 -34 -63 -52q-37 -17 -83 -17q-39 0 -72 12q-37 13 -69 35.5t-63 45.5q-7 5 -13.5 10.5t-14.5 10.5q-7 5 -14 5q-2 0 -6.5 -1t-26.5 -9q-71 -32 -150 -67t-164 -64q-46 -15 -97 -31.5t-104 -28.5q-31 -8 -68 -15t-74 -7
q-32 0 -56 6q-47 12 -68 46q-19 30 -8 68t43 54q12 6 23 6q3 0 9 -2h1q4 -1 4 -7q0 -5 -6 -5h-1h-6q-15 0 -26 -8q-16 -11 -23 -32q-12 -31 -1 -58q11 -24 34 -34t40 -13q12 -2 24.5 -3.5t26.5 -1.5q21 0 44.5 3.5t51.5 8.5q64 13 124.5 32t113.5 38q68 24 133 51.5
t128 55.5l48 21q24 9 26 17q2 5 -0.5 12.5t-8.5 18.5q-29 54 -36 102q-7 40 -4 81q-13 22 -20 46t-7 50q1 26 10 50.5t24 45.5q14 20 33.5 37.5t40.5 33.5q-17 2 -34.5 6t-32.5 15q-11 9 -18.5 22.5t-12.5 27.5q-9 25 -8.5 53.5t9.5 55.5t25.5 50.5t40.5 38.5l4 2t4 -1
q3 0 3 -6q-1 -5 -9 -11q-21 -15 -35.5 -37t-21.5 -46.5t-6.5 -50.5t10.5 -50q5 -13 12 -24t18 -18q9 -5 20 -7t22 -2q17 -1 33.5 2.5t30.5 10.5q2 2 3.5 2.5t3.5 2.5q3 4 1.5 8.5t-3.5 9.5q-17 36 -13.5 78.5t28.5 74.5q26 32 67.5 43t79.5 -7q12 -6 22.5 -16t12.5 -24
q2 -13 -4 -25t-13 -22q-25 -34 -57.5 -60.5t-69.5 -46.5l-8 -4t-6 -6q-3 -3 -4 -8t3 -7q1 -2 7 -6q12 -5 22.5 -7t21.5 -11q10 -8 14 -23.5t-6 -23.5q-9 -5 -19.5 -2t-18.5 11t-13.5 17t-13.5 17q-4 4 -11 6q-6 1 -14 -2q-20 -7 -36.5 -20t-30.5 -29q-18 -20 -32.5 -43.5
t-21.5 -49.5q-5 -12 -6 -24.5t0 -24.5q0 -34 14 -64t36 -53q10 -11 24 -23t29.5 -21t32 -13.5t32.5 -2.5q14 2 27 7t24 14t19.5 19t19.5 20q3 3 7 0t0 -7q-16 -22 -36 -38q-22 -18 -46.5 -24t-49.5 -2.5t-48.5 15t-43.5 28.5q-4 4 -8 7.5t-8 7.5q0 -31 7 -61t21 -57
q10 -21 30 -21q8 0 12 1q20 4 36.5 12.5t32.5 17.5q6 4 12 7t12 7q30 15 70.5 31t80.5 16q20 0 38 -5q13 -4 25 -9t21 -14q14 -14 21 -33t9 -41zM228 308q-3 1 -5.5 0t-0.5 -6q4 -7 8.5 -13t9.5 -11q4 -2 7 -4.5t8 -1.5q9 1 8.5 6.5t-5.5 10.5q-5 7 -10.5 11t-13.5 8h-6z
M198 432q0 -7 -0.5 -13t-0.5 -13v-8t1 -7v-11t1 -10q1 -7 11 -5q36 16 67 41.5t56 54.5q4 6 9.5 13.5t9.5 15t4.5 16t-5.5 16.5q-6 9 -16 15q-26 14 -53 9t-47 -26q-17 -17 -25.5 -40.5t-11.5 -47.5zM460 -244q17 19 25.5 44.5t5.5 49.5q-5 36 -34 58q-27 18 -68 18
q-16 0 -32.5 -2.5t-35.5 -8.5q-36 -11 -69 -28t-65 -36q-7 -4 -13 -7.5t-13 -7.5q-11 -7 -14 -15q-2 -8 7 -19q13 -17 29 -30.5t30 -24.5q54 -39 120 -39q13 0 25.5 1t26.5 4q47 11 75 43z" />
    <glyph glyph-name="F" unicode="F" horiz-adv-x="480" 
d="M776 -174q2 -42 -21 -77q-11 -17 -27 -30t-36 -23q-38 -16 -82 -16q-39 0 -73 12q-37 13 -69 35t-63 46l-27 21q-8 5 -14 5q-2 0 -3 -0.5t-3 -0.5l-4 -1l-12 -4t-12 -5q-70 -32 -149.5 -66.5t-164.5 -63.5q-46 -16 -96.5 -32.5t-103.5 -28.5q-32 -7 -69 -14.5t-74 -7.5
q-15 0 -29 2t-27 5q-46 12 -68 45q-19 30 -8 69q11 38 43 54q13 5 23 5q7 0 10 -1q7 -2 4 -7q0 -6 -6 -6h-1q-2 1 -6 1q-13 0 -26 -8q-15 -11 -23 -32q-12 -32 -1 -58q11 -24 34.5 -34.5t40.5 -13.5q12 -2 24.5 -3t25.5 -1q21 0 44.5 2.5t52.5 8.5q63 13 123.5 32t114.5 39
q67 24 132 51.5t129 55.5q11 5 23 10l24 10t18.5 9t8.5 9t-1 12t-9 19q-5 11 -10 21t-9 21q-2 -10 -5.5 -19.5t-8.5 -17.5q-3 -5 -9.5 -12.5t-14.5 -13.5t-15.5 -7.5t-13.5 6.5q-1 1 -5 7q-4 13 -2 32q2 6 5 7q0 1 1.5 1.5t1.5 -0.5q2 -1 4 -5v-11t1.5 -13t5.5 -8t12 4
q13 10 19 23.5t8 29.5t0.5 32t-3.5 31q-7 39 -12.5 78t-11.5 77q0 8 -3 17q0 2 -2.5 3.5t-4.5 0.5q-4 -1 -6 -1t-4 -2q-22 -10 -43 -20t-41 -22q-17 -9 -30 -20t-21 -28q-1 -1 -2.5 -4.5t-3.5 -6t-4 -3.5t-4 3q-2 7 2 11q5 21 20.5 34t32.5 23q21 12 43.5 22.5t45.5 21.5
q4 2 6 3.5t6 3.5q8 4 6 12q-7 46 -17 92t-14.5 92.5t-0.5 92t25 89.5l10.5 21t11.5 19t17.5 22.5t27.5 30.5q5 4 1.5 4t-9.5 -2q-36 -9 -71.5 -15t-78.5 -15q-33 -8 -65 -21t-57 -39q-26 -27 -36 -63t12 -71q6 -6 1 -10q-3 -3 -5 0q-8 4 -13 12t-7 17q-9 32 1 67q4 17 14 33
q12 20 27 33.5t32 23t36 16.5t40 13q23 6 54 11t53 10q43 10 66.5 15.5t43.5 19.5q6 4 24.5 16.5t40 23t40.5 15t27 -6.5q3 -6 -0.5 -15t-9.5 -11q-17 -10 -33 -18.5t-34 -13.5l-18 -4t-17 -4q-29 -8 -48.5 -34.5t-30.5 -51.5q-14 -26 -21 -55.5t-9 -58.5q-7 -66 1 -128
t16 -127q0 -4 0.5 -6.5t1.5 -5.5t5 -3t10 2l81 42q9 4 15 8q4 2 6.5 0.5t1.5 -5.5q0 -4 -3 -4q-3 -3 -6.5 -5t-7.5 -4t-17 -9t-28 -15t-28.5 -15t-17.5 -9q-5 -4 -5.5 -9t-0.5 -10q0 -16 4 -32.5t6 -32.5q8 -57 20 -111t38 -106q10 -21 31 -21q2 0 12 2q19 4 33 11.5
t30 17.5q39 23 86.5 42.5t94.5 19.5q20 0 37 -6q27 -8 44 -25q30 -27 32 -71zM407 667q0 -1 -1.5 -2t-1.5 -3q0 -1 1.5 -1.5t1.5 -1.5h3q21 3 39 10.5t38 21.5q4 2 4.5 4t0.5 5q-2 6 -9 4q-21 -5 -39 -15t-37 -22zM733 -257q17 19 25 44.5t5 49.5q-5 38 -34 58
q-26 19 -68 19q-29 0 -67 -11q-36 -11 -69.5 -28.5t-65.5 -35.5q-6 -4 -12.5 -7.5t-13.5 -7.5q-11 -7 -13 -15q-1 -9 6 -19q14 -17 29.5 -31t29.5 -24q55 -40 121 -40q25 0 51 6q46 9 76 42z" />
    <glyph glyph-name="G" unicode="G" horiz-adv-x="366" 
d="M279 172q-5 -29 -11.5 -57t-20.5 -57q-6 -15 -15.5 -29.5t-21.5 -25.5t-27 -17.5t-33 -5.5q-34 0 -62.5 24t-42.5 54q-22 42 -32.5 89t-11.5 95.5t6.5 96.5t21.5 92q9 29 22 57t29 54q7 11 13.5 20.5t13.5 19.5q12 14 22.5 27t22 24.5t24.5 20.5t30 15q19 6 39.5 5.5
t40.5 -5.5t39 -13.5t35 -18.5q25 -14 44.5 -34t30.5 -47q2 -5 3.5 -9t2.5 -9q0 -1 1.5 -3.5t2.5 0.5q0 1 2 11.5t5 23.5t6 25t5 15q2 7 8 6t5 -8q0 -1 -2.5 -10.5t-5 -21t-5 -21t-2.5 -10.5q-5 -19 -7.5 -29.5t-4.5 -18t-3 -14t-3 -17.5q-2 -9 -7 -5.5t-5 10.5q-2 20 -2 42
t-8 41q-11 30 -35 50t-52 32q-18 7 -37 13.5t-37.5 8t-36.5 -3.5t-34 -20q-33 -29 -58 -64.5t-42.5 -75t-28 -82t-14.5 -85.5q-3 -38 -3 -80t6.5 -83t22.5 -78.5t46 -65.5q17 -16 37 -20t40 14q29 28 47.5 69.5t23.5 80.5v4q-2 5 -5.5 5.5t-6.5 0.5q-40 -4 -79 -23
q-8 -4 -15.5 -10t-7.5 -16q0 -3 1 -7t-1 -7q-2 -2 -6 -4q-5 0 -6 6q-5 12 2 23t18 19q15 11 33 16.5t36.5 9.5t37 9t35.5 15h3q2 0 2 -3.5t-2 -5.5q-4 -9 -7.5 -21t-8 -34t-11 -57.5t-16.5 -91.5l-4 -3q-5 -2 -6.5 0.5t-1 7t2 10.5t2.5 11q8 35 12.5 65t12.5 66q1 6 2 11.5
t-1 11.5h-2z" />
    <glyph glyph-name="H" unicode="H" horiz-adv-x="472" 
d="M541 654q2 -11 1 -23l-2 -24q-5 -26 -15 -49.5t-30 -41.5q-39 -35 -90 -55q-18 -8 -18 -29q0 -26 -0.5 -52t-1.5 -53q-1 -31 -0.5 -61.5t2.5 -61.5q3 -49 10.5 -98.5t22 -96.5t36.5 -91.5t54 -83.5q6 -8 0 -11q-2 -2 -3.5 -1t-2.5 2q-38 24 -62.5 61.5t-41.5 75.5
q-19 43 -31.5 87t-17.5 92q-7 46 -8 92.5t1 92.5v21.5t-0.5 27.5t-0.5 25.5v15.5q-1 2 -1.5 5t-5.5 1q-20 -6 -36 -10t-39 -12q-10 -4 -10.5 -13.5t-0.5 -19.5q-1 -25 -1 -49v-49l-3 -133v-61t-2 -59l-4 -99q-2 -18 -6 -36q-3 -17 -16 -21q-8 -4 -13 -0.5t-8.5 10.5
t-4.5 14.5t0 12.5q4 21 5 42l2 42q4 96 9 188.5t2 188.5q0 5 -1.5 8t-1.5 7q0 2 -2.5 3t-3.5 1q-2 -1 -9 -1q-29 -10 -57 -21.5t-54 -26.5q-21 -11 -40 -27.5t-25 -40.5q-3 -11 -9.5 -10t-4.5 12q3 16 14.5 30.5t26.5 26t31.5 21t30.5 16.5q23 11 45.5 19t45.5 18q6 1 11 13
v16q1 16 0.5 51.5t-2 75t-2 74.5t0.5 50q0 5 5.5 8.5t10.5 2.5q6 -2 12.5 -6t7.5 -14q1 -8 2 -27t1.5 -43t1.5 -50.5t1.5 -50t2 -41.5t3.5 -24q0 -3 4 -5t7 -1q13 5 26.5 8.5t26.5 8.5q10 2 19.5 6t11.5 15q1 7 2.5 13t1.5 12q4 42 12 82q3 21 7 41.5t11 40.5q7 24 19.5 48
t31.5 42q15 13 36 9q37 -9 53.5 -35t19.5 -58zM526 600q4 20 3.5 41t-6.5 39t-19 32t-34 21q-17 6 -29 -7.5t-19.5 -33.5t-11.5 -41.5t-5 -31.5q-6 -30 -9 -59.5t-4 -59.5v-14q0 -9 10 -8q23 6 43.5 19.5t37.5 27.5q18 14 28 34.5t15 40.5z" />
    <glyph glyph-name="I" unicode="I" horiz-adv-x="464" 
d="M325 764q13 0 18.5 -11t0.5 -22q-5 -10 -13.5 -17.5t-16.5 -14.5q-7 -7 -7.5 -16.5t0.5 -19.5q6 -114 19.5 -224.5t15.5 -225.5q3 -77 -14 -162q-6 -25 -15.5 -51.5t-24 -49.5t-35.5 -39.5t-49 -20.5q-32 -5 -64.5 0.5t-59.5 20.5t-46 40t-25 60q-6 31 4 56q5 11 13 7
q4 -2 2 -11q-13 -40 0 -72.5t41.5 -54t66 -30t73.5 -0.5q28 6 49 30t32 53q8 28 10.5 58t1.5 60q1 45 -1 89.5t0 92.5q0 22 -23 17q-12 -2 -24.5 -3.5t-24.5 -1.5q-45 0 -88 20t-67 61q-12 21 -13.5 44t4 46t16.5 44t25 38q17 23 37.5 42t43.5 36q21 15 42 26t41 32
q11 11 15 26t12 28q10 18 28 20zM300 362q-2 37 -7.5 86.5l-10.5 94.5t-9 77l-4 32q0 5 -6.5 3.5t-14.5 -5.5t-15.5 -9t-9.5 -6q-26 -17 -51.5 -38t-46 -45.5t-34 -53t-16.5 -61.5q-2 -20 6 -35.5t19 -29.5q9 -12 24 -22.5t32 -18.5t34.5 -12t32.5 -3q16 1 32 1.5t29 8.5
q13 4 16 20q-2 5 -1.5 8.5t1.5 7.5zM328 735q4 8 -2.5 8.5t-10.5 -1.5q-4 -6 -5.5 -11t-2.5 -9q0 -6 8.5 -0.5t12.5 13.5z" />
    <glyph glyph-name="J" unicode="J" horiz-adv-x="520" 
d="M478 158q3 -6 -0.5 -9.5t-6.5 -3.5q-5 -2 -22 3q-8 2 -13.5 3t-9.5 2q-13 2 -26 3.5t-27 1.5q-9 0 -10 -7q-2 -15 -2.5 -30.5t-2.5 -31.5q-2 -30 -5.5 -60.5t-11.5 -59.5t-18.5 -58t-24.5 -57q-14 -26 -33 -50t-42 -42q-46 -40 -105 -50q-38 -6 -62.5 11.5t-37.5 46.5
t-15.5 63t4.5 61q4 17 9 32t12 31q40 81 114 141q35 29 76.5 46t86.5 29q14 4 16 18q1 14 1 28v28q-2 73 -9 145t-5 147q2 32 4 62t9 60q1 13 -9 19q-20 14 -40.5 25t-36.5 31q-11 14 -17 34t2 39q6 16 20 26.5t31 13.5q4 1 8 -2t4 -6q0 -5 -3 -5q-23 -8 -37 -23.5t-3 -41.5
q8 -18 23.5 -32t31.5 -24l9 -6t12 -7t12 -3.5t9 3.5q5 4 7.5 8.5t7.5 9.5q38 49 102 53q11 1 23 -1t21.5 -7.5t15 -15.5t3.5 -24q-2 -18 -11.5 -30t-23.5 -21q-19 -11 -43.5 -15t-45.5 0q-11 3 -20 3q-16 3 -20 -10q-5 -14 -6 -39t-0.5 -52t2 -50.5t1.5 -34.5q2 -20 3 -37
t2 -35t2 -38.5t2 -46.5q2 -32 1 -64t3 -64q1 -10 13 -12q21 -5 42.5 -7t41.5 -7q5 -1 10.5 -1.5t7.5 -5.5zM366 696q-5 -8 7 -13q10 -4 22 -4t23 -1q40 -1 66 26q13 13 12 33q0 12 -12 18q-19 9 -42.5 4t-40.5 -16q-24 -18 -35 -47zM314 12q4 28 4.5 55.5t1.5 54.5
q0 6 0.5 14t-2.5 13q-6 7 -15.5 4t-16.5 -4q-85 -18 -147.5 -72t-97.5 -132q-29 -65 -19 -129q4 -24 14.5 -46t32.5 -33q25 -13 55 -5q14 2 26 8t24 13q45 29 74 71.5t46 93.5q8 23 12.5 46.5t7.5 47.5z" />
    <glyph glyph-name="K" unicode="K" horiz-adv-x="642" 
d="M939 21q9 -22 4.5 -42t-17.5 -35.5t-31.5 -25t-38.5 -11.5q-15 -2 -27 -2t-25 2t-27.5 6.5t-35.5 12.5q-4 1 -11 4l-14 6t-14 5t-11 1q-2 0 -15 -9t-33.5 -24t-45.5 -33.5t-51.5 -37.5t-51 -37.5t-43.5 -32.5q-3 -2 -6 -5t-2 -8q0 -5 8 -9q29 -18 63 -22.5t66 6.5
q3 1 6.5 2t6.5 0q8 -2 6 -9q-1 -3 -6 -5q-34 -15 -72 -10.5t-72 21.5q-10 5 -20 9.5t-21 5.5q-11 0 -21.5 -5t-21.5 -10q-34 -16 -71 -21.5t-75 -0.5q-26 3 -50 16.5t-29 39.5q-4 17 3.5 32.5t21.5 26.5q14 10 30.5 14t33.5 4q37 0 71 -14.5t66 -34.5q7 -5 14 -8.5t15 -3.5
q10 -1 19 3.5t17 9.5q119 80 229 169h1q-37 14 -66 40t-54 55q-20 24 -38 51t-34 53q-7 11 -13.5 20t-13.5 20q-11 20 -22 40.5t-23 40.5q-8 13 -17 27t-22 24q-11 9 -24 12t-27 5q-6 2 -6 -5q-5 -33 -7.5 -65.5t-7.5 -65.5q-4 -34 -9 -67.5t-10 -66.5q-5 -29 -15.5 -62
t-28.5 -59.5t-45 -39.5t-64 -1q-21 5 -40 18.5t-32 30.5q-21 30 -32.5 69.5t-5.5 77.5q3 17 11.5 32t22.5 25q7 4 9.5 -0.5t-2.5 -9.5q-25 -25 -28 -59q-3 -20 1 -42.5t12.5 -43.5t22 -39.5t30.5 -30.5q20 -14 45 -18t47 7q23 11 35 33t17 45q8 35 11.5 71t8.5 71
q14 109 24 217t23 218q1 6 -3 6t-8 -3q-41 -30 -85 -48q-37 -16 -74 -32.5t-65 -46.5q-14 -14 -18 -32t-7 -35q-1 -2 -2 -5t-3 -3q-3 0 -4.5 3t-1.5 5q0 23 11 48q8 18 22 31.5t30 24.5q17 11 35.5 19.5t35.5 16.5q32 11 62 25.5t55 37.5q11 9 19.5 21t10.5 27q0 10 8 12
q7 3 13 -3q5 -5 4.5 -10.5t-0.5 -11.5q1 -17 -2 -35t-5 -36q-2 -15 -4.5 -41t-5.5 -52t-5 -47t-3 -27q0 -5 -1.5 -10.5t-0.5 -10.5q2 -6 6 -6q11 0 20.5 2t17.5 8q29 20 50.5 46t39.5 54q14 20 25.5 43t28.5 40q5 5 12.5 11t24.5 4q2 0 7.5 -1.5t7.5 -5.5q1 -4 -4 -7
q-3 -1 -6 1t-6 2q-15 0 -25 -12q-14 -14 -24.5 -30.5t-19.5 -32.5q-21 -35 -48 -70.5t-63 -56.5q-5 -2 -0.5 -6t6.5 -5q14 -9 24 -23q36 -48 65 -99.5t61 -101.5q29 -45 64 -85t83 -65q5 -3 11 -5.5t13 -4.5l28 22q18 13 37.5 26.5t40.5 24t43.5 16t46.5 4.5q25 -2 43.5 -12
t26.5 -31zM268 -279q29 2 55.5 12.5t47.5 27.5q-11 9 -22 17q-9 7 -19 13t-18 10q-15 7 -34 14t-38 10t-37 -0.5t-33 -17.5q-9 -8 -12 -18.5t-2 -21t7 -19.5t15 -13q20 -11 43.5 -13.5t46.5 -0.5zM930 -13q2 17 -6.5 29t-23 19t-31 8.5t-29.5 -2.5q-34 -9 -64.5 -30.5
t-55.5 -46.5v-5q9 -6 20 -11t22 -9.5t21.5 -8t16.5 -4.5q23 -5 50 -4.5t47 14.5q12 8 21.5 22t11.5 29z" />
    <glyph glyph-name="L" unicode="L" horiz-adv-x="491" 
d="M486 17l-3 -4q-23 -20 -47 -30q-37 -17 -78.5 -17.5t-84.5 7t-85.5 19.5t-81.5 21q-15 5 -20 3.5t-15 -14.5q-7 -8 -16 -12.5t-18 -6.5q-2 -1 -8 -1q-12 2 -19.5 9t-8.5 15.5t4.5 15.5t19.5 9q5 1 10 1t10 2q8 0 12 7q1 3 2.5 6l2.5 5q4 10 9.5 31t11 47t11.5 54.5
t10.5 55t8.5 48t6 33.5q11 54 23 107.5t26 107.5q11 45 29.5 88t50.5 76q20 20 46.5 28t52.5 8t54 -7t49 -25q20 -15 26 -42q2 -7 3.5 -18t1.5 -18q0 -9 -8 -8.5t-10 6.5q-2 8 -2.5 20t-4.5 23q-11 27 -36 39.5t-51 14.5q-29 2 -56 -4t-48 -28q-18 -17 -27 -39.5t-18 -45.5
q-12 -33 -17.5 -66.5t-12.5 -67.5q-11 -52 -19.5 -105t-18 -105.5t-21 -104.5t-28.5 -103l-3 -6q0 -3 1.5 -6t3.5 -3q28 -9 49.5 -16.5t50.5 -14.5q28 -7 63.5 -14.5t71.5 -9.5t69 5t57 30q6 6 12 8q3 0 6 -2t3 -5zM43 7q0 2 -1 5t-3 4h-6q-2 0 -5.5 -0.5t-5.5 -2.5
q-3 0 -4 -6q-2 -2 0 -4t4 -3q12 -7 21 7z" />
    <glyph glyph-name="M" unicode="M" horiz-adv-x="822" 
d="M859 -96q-9 -11 -19.5 -13.5t-21.5 -4.5q-41 -1 -77 28q-30 24 -45.5 59.5t-23.5 71.5q-11 57 -13 115t0.5 116t7 116t6.5 115q1 22 -1.5 43t-10.5 41q-7 18 -19.5 15t-26 -16.5t-25.5 -31t-17 -27.5q-16 -32 -23.5 -68.5t-7.5 -73.5q0 -32 1 -61.5t-5 -60.5
q0 -10 -7 -16q-9 -2 -13.5 6t-6.5 16q-5 36 -6 71t-5 71q-3 35 -12.5 70.5t-27.5 64.5q-7 13 -18.5 19t-25.5 2q-7 -2 -12.5 -9t-10.5 -13q-10 -14 -17.5 -27t-12.5 -30q-5 -23 -2 -45.5t5 -44.5q18 -159 12 -322l-2 -10t-6 -9q-5 -5 -11.5 -4t-11.5 4q-9 9 -15 23
q-13 30 -18 62.5t-5.5 66.5t2.5 68.5t6 68.5q3 33 4 67.5t-3 68t-14.5 65.5t-30.5 60q-12 17 -29 30t-38 18q-22 3 -43 -4.5t-38 -21.5q-17 -15 -29 -34t-23 -39q-32 -66 -47.5 -138t-10.5 -145q3 -34 13.5 -66t33.5 -58q12 -12 26.5 -20t31 -12t32.5 -2t31 11
q20 11 31 31.5t15 41.5q3 17 2 35t-3 35q-2 6 4.5 8t8.5 -4q2 -5 2.5 -8t0.5 -8q3 -24 -2 -52.5t-17 -51.5q-23 -44 -70 -51q-30 -6 -60.5 8.5t-48.5 37.5q-20 23 -29.5 52.5t-12.5 58.5q-9 75 5.5 146t43.5 140q10 23 24 47t32 42.5t41 29t52 7.5t53.5 -18.5t44.5 -39.5
q19 -23 30.5 -50t17.5 -56q11 21 16.5 34t17.5 27q11 14 31 23.5t38 7.5q23 -5 38 -23t22 -38q8 -20 14 -39t8 -45q10 35 22.5 66t32.5 60q9 15 24.5 28t32.5 13q14 1 31 -7.5t23 -22.5q7 -13 9 -28t2 -29q4 -67 -1 -135.5t-9 -137t-0.5 -136t24.5 -132.5q7 -21 18.5 -40.5
t29.5 -34.5q8 -8 19.5 -13t23.5 -7t22.5 -0.5t17.5 7.5q3 2 5 -1t-1 -4zM344 103q3 0 3.5 6.5t0.5 15t-0.5 16t-0.5 9.5q0 14 -0.5 27t-1.5 25q-1 26 -3 51.5t-4 51.5q0 4 -0.5 11.5t-1.5 15.5t-2 14t-2 8q0 2 -2 2t-2 -2q-1 -11 -2.5 -30t-2.5 -40t-1.5 -41.5t0.5 -36.5
q1 -15 2.5 -33.5t3.5 -33.5q2 -7 3.5 -13.5t4.5 -14.5q1 -2 3 -5t5 -3z" />
    <glyph glyph-name="N" unicode="N" horiz-adv-x="400" 
d="M755 -163q1 -20 -4.5 -40t-16.5 -37q-23 -34 -63 -52q-37 -17 -83 -17q-39 0 -72 12q-37 13 -69 35.5t-63 45.5q-7 5 -13.5 10.5t-14.5 10.5q-11 9 -24 4q-6 -2 -11.5 -4.5t-11.5 -4.5q-71 -32 -150 -67t-164 -64q-46 -16 -97 -32t-103 -28q-32 -8 -69 -15t-74 -7
q-31 0 -56 6q-47 12 -68 46q-19 30 -8 68t43 54q8 4 16.5 5.5t16.5 -0.5q4 -1 4 -8q0 -2 -3 -3.5t-4 -1.5q-8 0 -16 -1.5t-16 -6.5q-16 -11 -23 -32q-12 -31 -1 -58q11 -24 34.5 -34.5t39.5 -12.5q12 -2 24.5 -3.5t26.5 -1.5q21 0 44.5 3t51.5 8q64 13 124.5 32.5
t114.5 38.5q67 24 132 51.5t129 55.5q6 3 14 6.5t16.5 8t16 8.5t12.5 8q12 9 12.5 19t-4.5 23t-12.5 29t-12.5 38q-8 34 -14.5 68t-8.5 69q-5 68 -1 136t13 134q6 45 11 91t-5 91q-2 14 -7.5 23.5t-19.5 17.5q-11 8 -27 6.5t-27 -8.5q-32 -17 -55 -41.5t-41 -55.5
q-7 -12 -13 -24.5t-8 -26.5q-5 -17 -5 -35.5t2 -36.5q4 -84 0 -168t-18 -169q-2 -17 -6 -35t-11 -35q-2 -5 -6 -10.5t-10 -7.5q-9 -1 -15 5.5t-9 14.5q-9 24 -12 49t-3 51q-2 58 3 115.5t21 113.5q7 25 15 49t13 50q4 20 5 40.5t1 42.5q1 30 0 60t-3 61q0 6 -1 14t-1 16.5
t0.5 15.5t2.5 11q3 9 11.5 9.5t13.5 -7.5q4 -7 6 -20q1 -6 0 -13v-46q0 -20 0.5 -41.5t1.5 -37.5q0 -2 2 -2.5t3 1.5q17 32 38.5 56t53.5 45q29 20 61 21t56 -28q13 -16 19 -34t8 -38q5 -49 -4.5 -96.5t-15.5 -95.5q-6 -51 -7.5 -100.5t0.5 -100.5q3 -59 12 -117t36 -111
q10 -21 31 -21q7 0 11 1q20 4 34 12t30 17q39 23 86.5 42.5t93.5 19.5q20 0 38 -5q25 -8 44 -26q29 -26 32 -71zM64 65q0 10 0.5 19.5t-0.5 18.5v26.5t1 29.5l2 34q-3 51 -3 101q0 3 -1.5 10.5t-1.5 8.5t-1 1t-1 -1q-1 -3 -2 -5t-1 -3q-20 -54 -30 -108.5t-11 -111.5
q-1 -20 -1 -39t2 -39q1 -16 3.5 -36.5t12.5 -34.5q4 -5 9.5 -5.5t7.5 6.5q6 15 8 31t3 32t1.5 32.5t2.5 32.5zM712 -246q17 20 25 45.5t5 49.5q-5 36 -34 58q-27 18 -68 18q-29 0 -68 -11q-35 -11 -68.5 -28t-65.5 -36q-6 -4 -12.5 -7.5t-13.5 -7.5q-12 -7 -13 -15
q-2 -6 6 -19q14 -17 29.5 -30.5t29.5 -24.5q54 -39 121 -39q12 0 24.5 1t26.5 4q23 5 42.5 15.5t33.5 26.5z" />
    <glyph glyph-name="O" unicode="O" horiz-adv-x="572" 
d="M567 85q1 2 5.5 3t4.5 -4q4 -6 -1 -17q-15 -19 -39 -40q-39 -31 -86.5 -41t-95.5 3q-18 5 -34 -2t-32 -10q-18 -5 -35.5 -4t-33.5 6q-46 10 -86 35q-27 17 -48.5 38.5t-37.5 47.5q-19 30 -29 63l-1 1q-11 31 -14 63.5t-1 64.5q3 45 12 88t35 81q11 15 27.5 25t35.5 8
q1 0 5 -0.5t7 -0.5q5 -3 5 0q5 4 8 7l7 7q29 31 68.5 41t81.5 5q27 -2 54.5 -8t52.5 -16q19 -9 36 -20.5t30 -28.5q13 -18 18 -39.5t7 -43.5q15 -99 -11 -200q-24 -94 -97 -163l-18 -17q-2 -2 -0.5 -5.5t3.5 -4.5q27 -9 61 -4.5t59 16.5q23 11 43.5 27.5t33.5 38.5zM306 1
q3 3 -9 6t-20 6q-52 15 -93 50.5t-67 83.5t-35 102.5t-3 108.5q3 20 13.5 56t30.5 69q-4 -2 -9.5 -9t-10.5 -16t-9.5 -18t-6.5 -15q-7 -17 -11.5 -35.5t-8.5 -37.5q-12 -74 -1 -152q10 -75 45.5 -122t105.5 -73q5 -2 17.5 -5t26.5 -4.5t26.5 -1t18.5 6.5zM406 82
q37 44 55 99q18 54 19.5 109.5t-3.5 112.5q-2 23 -10.5 45.5t-25.5 38.5q-15 14 -32.5 21.5t-35.5 13.5q-34 12 -69.5 16.5t-70.5 -3.5q-29 -8 -53.5 -23t-41.5 -41q-4 -6 -8 -13t-6 -15q-18 -41 -24 -87t0 -91.5t24 -88t48 -76.5q29 -34 67 -54.5t83 -28.5q9 -2 19.5 2.5
t19.5 11.5q14 11 26 25.5t19 25.5z" />
    <glyph glyph-name="P" unicode="P" horiz-adv-x="369" 
d="M231 252q9 0 18 3q9 6 15.5 15t11.5 20q14 29 22 60.5t14 63.5q5 36 8.5 72t3.5 74q0 17 -1.5 34t-7.5 34q-4 18 -18 26q-15 6 -30.5 -1.5t-29 -21.5t-24.5 -30t-18 -26q-27 -42 -41 -88.5t-28 -94.5q-3 -9 -2.5 -18t1.5 -18q2 -40 7 -79t12 -79q6 -39 9.5 -78t7.5 -81
l2 -36q2 -18 -0.5 -36t-7.5 -35q-4 -12 -15.5 -18.5t-22.5 2.5q-9 7 -14 19t-7 23q-12 38 -15 78.5t-4 80.5q-2 36 2 71.5t10 75.5q1 9 2 16t4 15q3 15 3 32t-2 32q-1 8 -3.5 22.5t-4.5 29t-4.5 26.5t-3.5 15q-7 11 -15.5 7.5t-13.5 -11.5q-10 -16 -16 -33.5t-11 -34.5
q-9 -41 -8 -76q0 -8 -6.5 -5t-5.5 9q1 20 3 39.5t8 39.5q6 23 18 50q5 10 10.5 20t15.5 15q9 6 18 3.5t16.5 -10t12.5 -17.5t7 -18q0 -7 4 -16q0 -2 1.5 -2t1.5 2q2 5 4 10.5t2 8.5q11 39 24 75.5t33 71.5q8 13 20.5 31t28 33t33 23t35.5 2q11 -4 21.5 -15t16.5 -23t8.5 -24
t4.5 -25q7 -45 6.5 -90.5t-9.5 -90.5q-9 -41 -24 -85q-8 -19 -17.5 -36t-27.5 -29q-17 -11 -42 -11q-45 0 -78 33q-2 0 -2.5 1.5t0.5 2.5q2 4 5.5 3t7.5 -3q8 -7 17 -12.5t20 -9.5q10 -5 24 -3zM96 235q-11 -83 -6 -169q1 -15 3.5 -34.5t6.5 -38.5t9 -35.5t11 -26.5
q3 -5 7.5 -4.5t6.5 5.5q3 22 1.5 44.5t-4.5 44.5q-4 25 -5.5 50t-5.5 51q-5 35 -8 69.5t-10 69.5q0 2 -1 1.5t-1 -1.5z" />
    <glyph glyph-name="Q" unicode="Q" horiz-adv-x="456" 
d="M1 240q1 23 3 44t7 44q5 29 16.5 61t29.5 56q26 32 62 52.5t78 22.5t84 -17t65 -55q29 -47 40.5 -103t7 -113.5t-25.5 -112.5t-58 -100q-7 -9 -10 -13.5t-2 -8t6 -7t14 -10.5q23 -16 54 -23q18 -5 34 -1q2 0 5.5 1t5.5 -1q4 -3 2.5 -6t-5.5 -5q-9 -4 -19 -5t-20 2
q-16 5 -31 10.5t-29 15.5q-5 2 -9 4.5t-9 5.5q-8 2 -15 1q-2 -2 -5.5 -2.5t-6.5 -2.5q-6 -4 -18 -2q-13 2 -9 12q1 5 4 8.5t5 7.5q3 3 0 8l-5 4q-14 9 -28.5 18t-29.5 17q-14 9 -34.5 10.5t-36.5 -5.5q-2 0 -6.5 -1t-5.5 4q0 9 11 12t18 4q31 4 59 -12q12 -8 25 -15.5
t25 -15.5q5 -2 9 -5t9 -5q4 -5 11 2q16 16 27 36q29 60 42 125.5t5 131.5q-4 35 -14 70.5t-30 64.5q-21 32 -57.5 48.5t-74.5 8.5q-48 -11 -79 -42t-49 -73t-24 -89t-4 -90q2 -42 12 -79t32 -71q10 -14 21 -26.5t25 -21.5q15 -9 32 -14t34 -3q2 1 6 1.5t6 -1.5q4 -1 4 -4
t-4 -4q-27 -6 -54.5 2t-47.5 26q-23 19 -38 45t-24 54q-9 31 -14 62t-4 63zM266 -14q2 0 3 1.5t-1 2.5l-1 1q-2 -1 -3.5 -2.5t0.5 -2.5h2z" />
    <glyph glyph-name="R" unicode="R" horiz-adv-x="323" 
d="M741 -152q1 -20 -4.5 -40t-16.5 -37q-22 -34 -62 -52q-39 -17 -83 -17q-39 0 -72 12q-38 13 -70 35.5t-63 45.5l-27 21q-5 3 -10 5t-13 0q-6 -2 -12.5 -5t-12.5 -5q-70 -32 -149.5 -67t-164.5 -64q-46 -16 -96.5 -32t-103.5 -28q-32 -8 -68.5 -15t-74.5 -7q-31 0 -56 6
q-47 13 -67 46q-20 30 -9 68t44 54q10 6 22 6q4 0 10 -2t4 -7q0 -5 -7 -5q-8 0 -16 -1.5t-16 -6.5q-14 -10 -23 -32q-12 -31 -1 -58q11 -24 34.5 -34.5t40.5 -12.5q12 -2 24.5 -3.5t25.5 -1.5q21 0 44.5 3t52.5 8q63 13 123.5 32.5t114.5 38.5q67 24 132 51.5t129 55.5
q12 5 23.5 10.5t23.5 10.5q14 6 20 10t8 9q3 9 -3.5 18.5t-9.5 17.5q-22 50 -39 101l-34 102q-12 40 -30.5 81.5t-54.5 66.5q-27 18 -61 18q-9 0 -13 -4q-3 -2 -4 -6.5t-1 -8.5q1 -60 0 -119t-4 -119q-2 -15 -3.5 -30.5t-7.5 -29.5q-3 -5 -4 -6q-6 -4 -10.5 1.5t-6.5 12.5
q-26 88 -31 178.5t11 180.5q8 41 16.5 81t6.5 82q-1 17 -2.5 33t2.5 32q4 10 8 11q7 4 12 -3.5t7 -15.5q2 -9 3.5 -18t3.5 -17q11 20 27.5 36.5t36.5 26.5q21 11 44.5 13t45.5 -6q30 -11 49 -39t22 -60t-8.5 -63t-32.5 -55q-20 -25 -47.5 -42.5t-56.5 -30.5q4 1 9.5 -2.5
t11.5 -9t11.5 -11t7.5 -8.5q19 -20 33 -44.5t24.5 -50.5t19.5 -53t18 -52q14 -38 25.5 -77.5t30.5 -75.5q10 -21 31 -21q7 0 12 1q19 4 33 12t30 17q40 23 87 42.5t94 19.5q20 0 42.5 -6t39.5 -22q29 -28 31 -74zM40 180q0 32 -0.5 64.5t-1.5 64.5v5.5t-0.5 9t-1.5 8.5t-2 4
q0 2 -1 1.5t-2 -2.5q-3 -11 -5.5 -20.5t-3.5 -20.5q-2 -33 -5.5 -64.5t-3.5 -63.5q0 -93 22 -180q2 -5 3 -5q2 5 2 11v12v176zM90 261q43 8 81 28t63 55q13 17 20.5 37.5t9.5 41.5t-2 42t-15 39q-6 10 -14.5 18.5t-19.5 14.5q-14 7 -31.5 7t-33.5 -6q-29 -11 -46 -30.5
t-25 -44t-9.5 -52.5t-0.5 -55q2 -20 3 -39.5t3 -38.5q0 -5 0.5 -9t4.5 -6q2 -2 6.5 -2h5.5zM698 -235q17 20 25 45.5t5 49.5q-5 36 -34 58q-27 18 -68 18q-29 0 -67 -11q-36 -11 -69.5 -28t-65.5 -36q-6 -4 -12.5 -7.5t-13.5 -7.5q-12 -7 -13 -15q-2 -8 7 -19
q13 -17 29 -30.5t30 -24.5q54 -39 120 -39q12 0 25 1t26 4q48 11 76 42z" />
    <glyph glyph-name="S" unicode="S" horiz-adv-x="289" 
d="M217 -6q11 -6 6 -14q-3 -4 -9 -4q-11 0 -21.5 2.5t-16.5 -2.5q-3 -2 -5.5 -5.5t-4.5 -6.5q-16 -22 -37.5 -37.5t-46.5 -20.5q-12 -2 -25.5 -1t-25 6.5t-19.5 14.5t-10 23q-2 16 6.5 30t21.5 22q12 9 28 12q-55 5 -108 -2.5t-105.5 -22.5t-105 -36.5t-105.5 -43.5
q-45 -19 -90.5 -37.5t-93.5 -34.5q-27 -9 -65 -19.5t-84.5 -20t-99 -16t-107.5 -6.5h-10q-107 2 -186 30q-93 33 -149 101q-4 4 1 9q2 2 4.5 1.5t4.5 -2.5q102 -123 325 -126q56 0 109.5 6t100.5 15.5t86 20t66 19.5q48 16 93 34.5t90 37.5q68 29 132 54t131 40
q36 8 70 11.5t67 2.5q26 -1 51 -4t50 -9q5 -1 10.5 -1h10.5q7 0 11 1q9 6 12 17.5t3 25t-2 26t-3 21.5q-5 29 -13.5 55.5t-19.5 52.5q-14 33 -28.5 64t-28.5 62.5t-26 63.5t-19 67q-5 20 -8.5 45.5t-1.5 45.5q1 26 10.5 55.5t26.5 49.5q14 16 32.5 20.5t36.5 0t35 -15.5
t28 -24q9 -11 14.5 -24t4.5 -24q0 -2 -1 -5t-4 -4q-7 0 -8 9q-1 17 -11.5 30t-22.5 24q-17 14 -36.5 17.5t-37.5 -13.5q-11 -11 -18 -25t-12 -29q-4 -14 -5 -28.5t0 -29.5q2 -53 21 -99.5t43 -98.5q13 -28 27 -59t26 -63.5t20 -65.5t9 -65q0 -14 -1 -27t-4 -27
q-1 -4 -3.5 -9.5t-4 -11t-1.5 -10t5 -7.5q10 -6 21 -8zM127 -54q4 3 11.5 9.5t12 14t4.5 14t-10 10.5q-23 6 -48 6q-11 0 -23.5 -1.5t-23.5 -6t-19.5 -12.5t-11.5 -21t5 -21t19 -13q23 -9 44.5 -0.5t39.5 21.5z" />
    <glyph glyph-name="T" unicode="T" horiz-adv-x="768" 
d="M923 640q4 -6 -2 -12q-4 -2 -9.5 -1t-10.5 3q-31 12 -63 11.5t-64 -1.5q-33 -1 -65 -2.5t-64 -5.5q-11 -1 -13 -12q-14 -51 -24.5 -99t-19.5 -97q-18 -88 -27 -177t-2 -180q2 -28 4.5 -58t8.5 -59.5t16.5 -57.5t27.5 -52q8 -11 19 -19t24 -6q12 1 20.5 11.5t13.5 21.5
q9 19 12 45q0 5 3 9.5t8 2.5q4 -2 3 -9q-1 -29 -12 -55q-6 -15 -16.5 -27t-24.5 -17q-18 -6 -35 0.5t-31 19.5q-27 24 -43.5 57.5t-26 71t-13 76t-4.5 72.5q-2 69 5 136.5t18 136.5q5 35 11.5 69t13.5 68q1 6 5.5 23t9.5 35.5t9.5 34t5.5 19.5q1 7 -5 8t-9 0
q-82 -14 -163 -29t-162 -36q-55 -14 -112 -26.5t-108 -36.5q-9 -4 -8 -10q1 -2 2.5 -2t3.5 -2q11 -4 22.5 -2t24.5 1q8 0 7 -6q0 -1 -5 -3q-35 -5 -62 1q-3 1 -5.5 2t-4.5 2q-8 7 -4 14.5t15 14t27 12.5t30.5 11t26 8t14.5 4q85 23 170.5 42.5t173.5 36.5q9 2 27.5 5.5
t39.5 7t39 7t25 5.5q8 3 11.5 10.5t6 15.5t5.5 14.5t10 7.5q6 0 11 -5q5 -7 4.5 -16t-0.5 -17q0 -4 4 -5t8 -1q27 2 55.5 3t56.5 3q29 2 57.5 2.5t57.5 -5.5q4 0 11 -1.5t14 -3.5t12.5 -4t7.5 -3z" />
    <glyph glyph-name="U" unicode="U" horiz-adv-x="526" 
d="M879 -93q2 -28 -8.5 -54.5t-30.5 -46.5q-33 -32 -81 -41t-93 2q-46 11 -86 36t-76 55q-7 6 -14.5 11.5t-16.5 7.5q-10 2 -20 -1.5t-19 -7.5l-148 -64t-149 -60t-152.5 -49.5t-156.5 -33.5q-32 -5 -64.5 -5t-61.5 13q-32 14 -48 43t-7 63q5 20 20.5 31t31.5 16q5 2 9 -6.5
t-2 -10.5q-33 -11 -40.5 -34.5t2.5 -44.5q15 -32 49 -43t69 -10q55 1 108.5 12.5t106.5 28.5q114 35 222.5 80t217.5 93q5 2 10.5 6t6.5 9t-1 9l-4 8l-30 50q-11 19 -20.5 34.5t-9.5 16.5q-6 5 -11.5 2t-10.5 -8q-18 -20 -34 -41t-39 -36q-23 -16 -50.5 -19.5t-54.5 1.5
t-51.5 18.5t-43.5 32.5q-39 39 -58 91.5t-27 107.5q-11 67 -12 134t4 134.5t14.5 134.5t20.5 134q2 14 10 29t22 13q17 -1 20.5 -20t-0.5 -36q-24 -109 -35.5 -219t-6.5 -222q2 -36 7 -72t15 -70t26.5 -65.5t41.5 -56.5q22 -23 52 -37t61 -8q30 6 52.5 27.5t41.5 45.5
q8 10 14.5 20t8.5 22q2 11 -0.5 22t-5.5 22q-24 85 -31 171.5t4 174.5q5 43 17 85.5t41 74.5q11 13 26 22t31 4q20 -7 26.5 -28.5t6.5 -42.5q2 -176 -42 -344q-3 -12 -6 -27.5t-5.5 -32t-5 -32t-3.5 -27.5q-1 -11 0 -22t5 -22t9.5 -26t12 -31t13.5 -30.5t14 -25.5
q5 -7 10.5 -13.5t13.5 -10.5q10 -3 20 -1t20 6q39 17 75 38.5t77 35.5q20 7 41.5 9.5t42.5 0.5t40 -10t34 -23q14 -14 20.5 -31t7.5 -36zM403 144q3 -7 5 -5.5t4 7.5t3.5 14.5t3.5 16.5q14 49 23.5 97.5t14.5 99.5q7 50 12 99t1 100q-1 16 -10 29q-6 11 -15.5 12.5
t-18.5 -6.5q-15 -15 -22 -34q-11 -26 -16.5 -54.5t-7.5 -56.5q-3 -44 -3 -85q0 -30 1 -59.5t4 -58.5q2 -16 3.5 -30t3.5 -29q1 -4 2.5 -12t4 -17t4.5 -17t3 -11zM837 -176q17 19 25.5 44.5t5.5 49.5q-5 38 -34 58q-29 19 -68 19q-29 0 -68 -11q-36 -11 -69 -28.5t-65 -35.5
q-7 -4 -13 -8t-13 -8q-11 -5 -14 -14q-2 -9 7 -19q13 -17 29 -31t30 -24q53 -40 120 -40q25 0 52 6q45 9 75 42z" />
    <glyph glyph-name="V" unicode="V" horiz-adv-x="495" 
d="M598 769q-3 -3 -5 -3q-4 -1 -7.5 1t-7.5 4.5t-8.5 3.5t-10.5 -3q-11 -7 -18.5 -15.5t-12.5 -17.5q-54 -94 -86.5 -193.5t-50.5 -205.5q-18 -105 -24.5 -210t-8.5 -211q0 -9 -4.5 -19t-12 -17t-17.5 -7.5t-20 8.5q-18 18 -26 41l-16 46q-25 66 -42 134t-29 137t-21 138
t-19 138q0 4 -3 7q-4 1 -10 -3q-29 -26 -60.5 -52t-49.5 -60q-9 -19 -11.5 -40.5t8.5 -39.5q2 -4 4 -7t3 -7t-1.5 -7.5t-6.5 -2.5q-3 0 -8 5q-18 26 -13.5 60.5t22.5 61.5t43 47t49 43q17 14 25 29q7 17 5 36t-2 38q-2 20 3 46t20 40q12 11 29 8t26 -17q8 -16 5 -33.5
t-11 -33.5q-7 -16 -16 -31t-14 -32q-3 -20 -2 -32q2 -34 8.5 -68t11.5 -67q8 -57 16.5 -115.5t19.5 -116t27 -114t39 -109.5q1 -3 4.5 -11t8.5 -15.5t10 -10.5t10 5q2 4 2.5 8.5t0.5 9.5q2 106 9 211t27 210q19 106 53.5 206t89.5 191q5 9 11.5 17.5t14.5 14.5q8 7 19 9
t21 -3q8 -5 11.5 -12t-1.5 -12zM178 610q0 -1 0.5 -2t0.5 -2q2 -2 5 -2q5 8 9.5 16t8.5 17q10 18 12 40q0 11 -4 18q-2 4 -5.5 7.5t-8.5 3.5q-7 2 -11 -1t-6.5 -8.5t-3.5 -12t-2 -11.5q-1 -16 1 -31.5t4 -31.5z" />
    <glyph glyph-name="W" unicode="W" horiz-adv-x="582" 
d="M553 525q2 -4 -0.5 -7t-5.5 -5q-10 -7 -25 -13q-5 -2 -11 -3t-9 -6q-2 -3 -2.5 -7t-0.5 -8q2 -115 -5.5 -227t-32.5 -224q-5 -25 -15.5 -49t-33.5 -35q-16 -6 -32.5 -4t-30.5 7q-28 11 -50 32t-34 47q-20 42 -26 84.5t-12 93.5q0 3 -2.5 3t-4.5 -2q-13 -29 -24 -59.5
t-30 -57.5q-16 -23 -40.5 -35.5t-52.5 -0.5q-17 7 -27.5 21t-17.5 31q-14 35 -18.5 73.5t-3.5 77.5q2 89 19 175q9 51 23.5 99.5t33.5 96.5q2 6 7 21.5t13 33.5t17.5 36.5t20 32t22 18t22.5 -4.5q8 -7 5.5 -19.5t-7.5 -22.5q-32 -67 -54 -137t-39 -142q-13 -57 -21.5 -114.5
t-9.5 -115.5q0 -29 3.5 -58t17.5 -54q8 -16 18 -19t20.5 1.5t20 14.5t16.5 21q13 20 21 39t16 42q13 33 23 66.5t24 65.5q2 5 4.5 9t7.5 6q6 4 13 0.5t11 -9.5q4 -7 5 -13.5t1 -14.5q1 -75 8.5 -150.5t36.5 -142.5q9 -19 23 -35.5t34 -18.5q14 0 26 8t19 20q8 11 12 24.5
t6 27.5q22 106 29 212t5 212q0 8 -2 14q-4 6 -11.5 7.5t-15.5 0.5q-35 -1 -69.5 5t-64.5 24q-29 18 -50 47t-25 64q-3 34 14.5 66.5t51.5 44.5q16 7 33.5 7t35.5 -4q27 -7 51.5 -22.5t38.5 -40.5q18 -30 21 -66t8 -71q1 -6 3.5 -12.5t7.5 -8.5q8 -2 14 2t13 9q5 2 11.5 0.5
t8.5 -4.5zM474 576q-2 19 -5.5 36.5t-8.5 34.5q-11 33 -41 53.5t-64 24.5q-24 3 -46 -7.5t-35 -32.5q-14 -24 -13 -49.5t13 -48t32 -40.5t44 -27q26 -9 54 -14.5t55 -0.5q3 0 8 3q8 0 8 7q0 2 0.5 4t0.5 4q2 14 1 27t-3 26z" />
    <glyph glyph-name="X" unicode="X" horiz-adv-x="408" 
d="M664 9q8 -22 3.5 -42t-17 -35.5t-31 -25t-38.5 -11.5q-15 -2 -27 -2t-25 2t-28 6.5t-36 12.5q-4 1 -10.5 4t-14 6t-14.5 5t-11 1q-2 0 -15 -9t-33 -24t-45.5 -33.5t-51.5 -37.5t-50.5 -37.5t-43.5 -32.5q-9 -5 -9 -13q1 -3 3.5 -5t4.5 -4q29 -18 63.5 -22.5t66.5 6.5l6 2
t6 0t5.5 -3.5t0.5 -5.5q-1 -3 -6 -5q-34 -15 -72 -10.5t-71 21.5q-10 5 -20.5 9.5t-21.5 5.5q-11 0 -21.5 -5t-20.5 -10q-34 -16 -71.5 -21.5t-74.5 -0.5q-13 1 -26.5 5.5t-24.5 11.5t-19 16.5t-10 22.5q-3 17 4 32.5t21 26.5q14 10 30.5 14t33.5 4q37 0 71 -14.5t66 -34.5
q7 -5 14.5 -8.5t15.5 -3.5q9 -1 18 3.5t17 9.5q29 20 69.5 49t76.5 56q42 32 86 65q-2 -1 -16 12.5t-31 31t-31.5 33t-17.5 18.5q-36 41 -62 87t-43 98q-2 7 -7 5t-7 -10t-9 -40.5t-18 -77t-27 -93.5t-36 -90q-5 -11 -13.5 -21.5t-19.5 -16.5q-11 -5 -24.5 -1.5t-19.5 14.5
q-1 3 -1 7t3 6q5 4 10 0t11 -7q5 -2 11.5 -0.5t11.5 5.5t8 10t5 11q18 39 31.5 80t24.5 83t21 84.5t21 84.5q2 11 3.5 20t-2.5 18q-16 51 -28 103.5t-24.5 105.5t-27 104.5t-33.5 101.5l-6 18q-2 6 1.5 8.5t8 2.5t9.5 -2t7 -4q15 -10 25.5 -25.5t18 -33.5t12 -36.5
t9.5 -35.5q15 -51 26 -103t25 -104q0 -3 3.5 -10.5t8.5 -5.5q2 2 4 3.5t3 3.5l12 32t11 32q11 30 24.5 59t28.5 58q14 26 28 52.5t38 44.5q8 7 18.5 11.5t21.5 3.5q7 0 11 -3q6 -6 1 -11q-2 -3 -6.5 -2.5t-9.5 1.5q-8 0 -16 -4t-14 -9q-20 -18 -32.5 -41.5t-24.5 -47.5
q-15 -31 -29 -62.5t-26 -63.5q-6 -17 -11.5 -33.5t-10.5 -33.5q-5 -16 -8 -32t-1 -33q7 -46 24.5 -96t40.5 -90q26 -45 62 -82.5t74 -70.5l14 10q18 13 37.5 26.5t40.5 24t43.5 16t46.5 4.5q26 -2 44.5 -12t26.5 -31zM-8 -291q29 2 56 12.5t47 27.5q-11 9 -22 17
q-9 7 -19 13t-17 10q-16 7 -34.5 14t-37.5 10t-37.5 -0.5t-33.5 -17.5q-8 -8 -11.5 -18.5t-2 -21t7 -19.5t14.5 -13q20 -11 43.5 -13.5t46.5 -0.5zM654 -25q2 17 -6.5 29t-22.5 19t-30.5 8.5t-29.5 -2.5q-35 -10 -67 -32.5t-56 -47.5q9 -6 20.5 -11.5t23 -10.5t22 -8.5
t16.5 -4.5q23 -5 50 -4.5t47 14.5q12 8 21.5 22t11.5 29z" />
    <glyph glyph-name="Y" unicode="Y" horiz-adv-x="464" 
d="M493 669q5 -26 -4 -52t-20 -49q-13 -25 -25 -49t-26 -47q-3 -6 -10.5 -17t-15 -23.5t-14 -23.5t-7.5 -17q-2 -6 -3 -34t-1 -63v-70.5v-57.5q0 -36 -0.5 -71.5t-5.5 -70.5q-5 -31 -16.5 -61t-26.5 -57q-13 -23 -31.5 -42.5t-46.5 -21.5q-57 -5 -86 42q-10 14 -16.5 29.5
t-13.5 30.5q-6 6 -10 5q-4 -2 -8 -2.5t-9 -2.5q-11 -5 -23 -5.5t-25 1.5q-10 2 -20 3.5t-19 6.5t-6.5 10.5t12.5 0.5q11 -6 22.5 -7t24.5 -3q25 -1 45 14q7 4 7 14v16t-1 16q-1 12 -0.5 24t4.5 23q2 11 10.5 15t17.5 -4q23 -20 23 -50q0 -22 -12 -35l-13 -11q-9 -9 -6 -20
q8 -26 20.5 -50t36.5 -40q14 -9 33.5 -8.5t33.5 11.5q14 10 19.5 23.5t10.5 27.5q14 38 19.5 76.5t7.5 78.5q2 17 2 33.5v33.5q1 20 0.5 39.5t0.5 39.5q0 7 0.5 21t1 30t1 30.5t0.5 22.5q0 2 -1.5 2.5t-1.5 -0.5l-45 -47q-24 -21 -54 -33q-16 -7 -28.5 -2.5t-22 15t-15.5 25
t-9 27.5q-18 60 -13.5 123.5t10.5 123.5q2 39 5.5 77t0.5 78q-2 14 -9.5 22t-23.5 5q-14 -3 -26 -12t-20 -22q-8 -12 -14.5 -25t-12.5 -27l-4 -6t-4 -3q-6 0 -6 5q-2 3 -1 7t2 6q5 11 10.5 21.5t12.5 20.5q7 11 14.5 21t18.5 18q11 7 23 10.5t25 1.5q17 -2 29 -14t19 -28
t8 -32.5t1 -33.5q0 -38 -6.5 -75.5t-8.5 -75.5q-4 -38 -5 -77.5t-1 -77.5q2 -20 4.5 -40t13.5 -38q6 -8 15 -8t18.5 4t18.5 10t14 10q41 34 71 80q3 6 3.5 16t2.5 17q3 16 5.5 31.5t4.5 31.5q5 45 11.5 87t24.5 84q7 18 19 38t32 28q18 7 38 4t25 -26zM139 -11q18 13 15 33
q0 13 -9 27q-2 2 -6.5 5t-6.5 -2q-4 -10 -4.5 -19.5t-0.5 -19.5q0 -5 1 -10.5t2 -10.5q0 -1 1 -2t2 -1h6zM465 592q8 17 14 36.5t-1 38.5q-5 10 -15 15q-18 3 -29.5 -7.5t-19 -26.5t-11.5 -34t-6 -31q-1 -1 -4 -20t-6.5 -44t-6.5 -49t-4 -34q0 -6 2 0q5 8 15.5 26t22.5 39
t23.5 41t17.5 33z" />
    <glyph glyph-name="Z" unicode="Z" horiz-adv-x="420" 
d="M255 616q46 0 90 -10.5t89 -21.5q5 -1 10 -3l10 -4q13 -14 9 -33q-4 -16 -15 -33q-91 -142 -187.5 -275.5t-196.5 -268.5q-5 -6 -3 -8t6.5 -2t10.5 1.5t9 2.5q16 3 31 7t30 9q38 11 76.5 24t76.5 25q23 8 46.5 13.5t46.5 0.5q11 -2 20 -8t11 -16q2 -5 -1 -10.5t-9 -6.5
q-5 0 -8.5 4t-6.5 7q-8 9 -18.5 12t-21.5 3q-11 -1 -21.5 -4t-19.5 -7q-43 -14 -85.5 -27.5t-85.5 -27.5q-20 -7 -41 -12.5t-43 -11.5q-5 -2 -13.5 -4t-17 -2t-16 3t-10.5 11q-4 8 0 15.5t9 14.5q72 106 145 206t149 203q31 42 60.5 79.5t56.5 82.5q6 10 1 17t-15 11.5
t-22 7t-20 3.5q-27 5 -53 11t-54 7q-24 0 -51.5 -4.5t-46.5 -22.5q-21 -21 -22.5 -52.5t7.5 -57.5q2 -7 -4 -9.5t-9 3.5q-4 6 -6 13.5t-2 9.5q-5 25 -3.5 49.5t18.5 44.5q20 24 50.5 32.5t59.5 8.5z" />
    <glyph glyph-name="bracketleft" unicode="[" horiz-adv-x="233" 
d="M125 833q6 -3 5 -10.5t-6 -8.5q-3 0 -11.5 -1t-18.5 -2.5t-20 -2.5t-16 -1q-8 -2 -6 -8q0 -3 2 -37.5t4.5 -86t5.5 -111.5t5.5 -113.5t4.5 -93t2 -48.5t1 -36t3.5 -62.5t5 -75t5.5 -73.5t5.5 -57t5.5 -25q3 -4 15 -3.5t26 3t27.5 5.5t19.5 4q4 0 6 -3.5t2 -8t-2 -8
t-6 -3.5q-14 -1 -31.5 -5.5t-31.5 -6.5q-8 -1 -20.5 -3.5t-25 -3t-22.5 3.5t-13 16q-1 3 -3.5 38.5t-5.5 92t-6.5 127.5t-7.5 145.5t-7 146t-6 128.5t-4.5 93t-1.5 40q0 6 -0.5 13.5t0.5 14t3.5 11.5t8.5 6z" />
    <glyph glyph-name="backslash" unicode="\" horiz-adv-x="369" 
d="M411 -11q-3 -3 -5.5 -0.5t-4.5 5.5q-123 184 -244 363.5t-238 368.5h-1q-3 5 -6 9t-5 9t2.5 8t6.5 -1l21 -32t55.5 -84t78.5 -118.5t89.5 -136.5t89.5 -136.5t78.5 -119t56 -85t22.5 -33.5l4 -8t0 -9z" />
    <glyph glyph-name="bracketright" unicode="]" horiz-adv-x="274" 
d="M182 820q12 -5 12.5 -19.5t-0.5 -25.5q0 -4 -1.5 -40t-4 -93t-6 -128.5t-7 -146t-7 -145.5t-7 -127.5t-5.5 -92t-3 -38.5q-3 -12 -13 -16t-22 -3.5t-24.5 3.5t-21.5 4q-14 1 -31 5t-32 6q-6 1 -7 11.5t7 10.5q6 0 19.5 -3t27.5 -5.5t26 -3.5t16 3q2 3 5 26.5t5.5 57
t5 72.5t4.5 74.5t3 63t1 36.5t2 48t5 92.5t6 113.5t6 111.5t5 86t2 37.5q2 8 -7 9q-6 0 -16 1t-20 2.5t-19 2.5t-12 1q-5 1 -6 9t6 11z" />
    <glyph glyph-name="asciicircum" unicode="^" horiz-adv-x="190" 
d="M127 642q4 -8 -3 -12q-7 -7 -11 -2q-1 1 -7 9t-12.5 18t-12.5 18.5t-7 10.5q-4 5 -9 4.5t-8 -5.5q-3 -4 -7.5 -11.5l-9 -15t-8 -14.5l-4.5 -9q-2 -4 -6.5 -5.5t-2.5 5.5q1 1 5.5 9t10 17.5t10.5 19t7 13.5q7 11 18 16q9 4 14.5 -1t10.5 -12q2 -3 7 -11t10.5 -17t10 -16.5
t4.5 -8.5z" />
    <glyph glyph-name="underscore" unicode="_" horiz-adv-x="333" 
d="M277 25q0 -1 1 -1h2h2q6 1 6 -7t-6 -9h-5h-47t-55.5 -0.5t-56.5 -0.5h-50h-36t-15 1q-8 2 -6.5 9t10.5 7h67t61 0.5t61 0.5h67z" />
    <glyph glyph-name="grave" unicode="`" horiz-adv-x="167" 
d="M73 621q-14 9 -26.5 18.5t-23.5 22.5q-4 5 -8 12t-2 14q1 7 7 8t11 -2q7 -5 11.5 -11t9.5 -12l21 -25q10 -13 24 -20q5 -3 15 -6t9 -10q-1 -8 -6.5 -8.5t-13 3t-15.5 8.5t-13 8z" />
    <glyph glyph-name="a" unicode="a" horiz-adv-x="321" 
d="M337 248v-3.5t-1 -3.5q-9 -18 -17 -35.5t-17 -34.5q-15 -27 -32.5 -50.5t-38.5 -36.5t-44.5 -12.5t-48.5 21.5q-22 20 -32.5 39.5t-14.5 35.5q-1 3 -1.5 6.5t-3.5 1.5q-2 -1 -3.5 -3t-3.5 -4q-9 -12 -25 -25q-8 -7 -18 -11t-20 -2t-18 8.5t-13 14.5q-9 14 -12 31t4 32
q6 16 21 29t30 19q30 11 51 -2q7 -5 9 -9q0 -8 -3 -9q-5 -2 -8.5 0t-6.5 4q-11 6 -24 0.5t-21 -16.5q-7 -11 -11 -22.5t-2 -25.5q1 -9 5.5 -17t13.5 -10q7 -2 13.5 2t12.5 9q12 13 21 29.5t14 33.5q6 17 11 34.5t11 35.5q2 5 5 10t8 7q8 2 13.5 -3.5t7.5 -13.5
q0 -7 -2 -13.5t-4 -13.5q-7 -18 -12.5 -37.5t-6.5 -38.5q-1 -14 5.5 -34.5t25.5 -49.5q11 -17 25.5 -21t29.5 1.5t30 18t26 29.5q14 22 29.5 49.5t26.5 51.5l3 7q2 3 7 2.5t6 -5.5z" />
    <glyph glyph-name="b" unicode="b" horiz-adv-x="354" 
d="M55 265q-4 -2 -8 -4.5t-6 -7.5q-2 -2 -2.5 -6t-0.5 -7q0 -72 27 -136q8 17 16 34.5t20 33.5q11 16 26.5 27t34.5 15q19 3 37.5 -4.5t27.5 -24.5q5 -8 8.5 -17t12.5 -14q11 -5 23 0q30 9 53 34.5t31 55.5q3 9 8 7q4 -1 4.5 -4t0.5 -6q-8 -36 -35.5 -63.5t-63.5 -35.5
q-5 -2 -10.5 -3t-10.5 -6q-6 -5 -7.5 -12t-3.5 -15q-6 -32 -22.5 -60t-39.5 -49q-7 -6 -15 -11t-17 -3q-17 0 -24.5 17t-5.5 34q3 46 39 78q9 7 17.5 13t16.5 14q8 9 12 20t-1 22t-17 15.5t-24 1.5t-21.5 -10.5t-17.5 -17.5q-23 -26 -34.5 -60t-11.5 -69q0 -5 -2 -10.5
t-7 -3.5q-2 1 -2.5 2t-2.5 2q-41 75 -52 161t-7 172q0 5 0.5 9t0.5 9q4 85 17 166.5t40 162.5q29 82 69 151q20 32 52.5 52.5t70.5 24.5q31 3 61.5 -5.5t55.5 -27.5q5 -4 9 -8l9 -9q9 -9 16 -20t11 -25q9 -26 5 -54t-11 -55q-20 -75 -49.5 -143t-74.5 -131t-97.5 -113.5
t-127.5 -82.5zM194 109q1 5 -2.5 8t-6.5 1q-4 -2 -7 -3t-5 -3q-21 -14 -32 -34.5t-16 -44.5v-7v-9q2 -3 3.5 -7t3.5 -6q4 -5 10 -5.5t10 4.5l9 10q22 40 33 89v7zM36 301q2 -14 12.5 -15.5t21.5 3.5q26 11 50 28t45 35q37 33 62 66q38 48 71 102t58 114q12 27 21 54l6 18
q4 11 7 22.5t6 22.5q2 11 3.5 21t1.5 21q1 16 0 30l-3 15q-14 37 -45 63q-14 7 -27 12q-14 7 -29 9.5t-29 2.5h-13t-12 -1q-33 -6 -55.5 -26t-42.5 -45q-6 -9 -11 -18.5t-11 -20.5q-24 -51 -40.5 -103.5t-26.5 -106.5q-12 -75 -18.5 -150t-1.5 -153z" />
    <glyph glyph-name="c" unicode="c" horiz-adv-x="281" 
d="M296 245q0 -2 0.5 -4t-1.5 -4q-5 -8 -15 -23.5t-24 -34t-31.5 -39.5t-36.5 -39q-21 -20 -46 -37.5t-49 -15.5q-26 0 -39.5 9.5t-25.5 21.5q-20 23 -29 57q-6 23 -6.5 45t3.5 45q5 23 14.5 43.5t25.5 35.5q7 7 20 14t30 8q22 1 35 -15q16 -18 10 -41q-2 -6 -7 -6
q-4 0 -5 4q-2 2 -2 8l-3 13q-4 12 -12 17q-3 2 -6.5 2.5t-5.5 0.5q-12 0 -22 -7q-12 -10 -20 -31q-6 -14 -9 -32t-5 -38q-1 -29 1.5 -51t10.5 -40q2 -4 5.5 -10.5t9.5 -13t14 -12t18 -6.5q1 0 2.5 -0.5t3.5 -0.5q27 0 50.5 19.5t42.5 39.5q26 25 48 54.5t42 62.5q2 5 4 5.5
t4 0.5q4 0 6 -5z" />
    <glyph glyph-name="d" unicode="d" horiz-adv-x="324" 
d="M331 247l2 -2l3 -3q-14 -43 -25 -77.5t-30 -75.5q-8 -16 -18 -29.5t-26 -21.5q-14 -9 -32 -7.5t-32 9.5q-21 13 -38 34q-18 20 -30 46t-15 53q0 2 -1.5 2.5t-2.5 -0.5q-1 0 -2 -1v-1q-5 -11 -8 -22.5t-7 -23.5q-5 -13 -9 -24.5t-9 -23.5q-7 -13 -17 -16.5t-20 -0.5
t-19 11t-13 19q-10 20 -10.5 46.5t1.5 48.5q2 17 10.5 36t24.5 29q11 7 24.5 11t27.5 0q3 -2 6.5 -3t8.5 -3q6 0 6 4q5 49 3.5 97.5t0.5 99.5q0 32 1 62.5t3 61.5q1 24 4.5 47t14.5 45q6 11 12 21.5t17 18.5q4 3 9.5 5.5t11 3t10 -1.5t5.5 -9q1 -9 0.5 -17.5t-2.5 -17.5
q0 -7 -1.5 -13.5t-2.5 -13.5q-4 -23 -9.5 -48t-10.5 -50.5t-9 -51t-6 -48.5q-2 -21 -4 -50t-4 -49q0 -1 -0.5 -12t-1.5 -26t-1.5 -31t-0.5 -28q0 -30 4.5 -61.5t13.5 -60.5q7 -22 18 -41.5t27 -34.5q10 -9 23.5 -11.5t24.5 3.5q14 7 23 20t16 27q11 21 18.5 42.5t15.5 43.5
l21 64q4 1 6 0zM122 518q-1 -5 0 -12t1 -9q1 2 2 4.5t1 4.5l30 162q2 11 -2.5 10.5t-9.5 -7.5l-9 -21q-6 -23 -6 -43l-4 -44t-3 -45zM78 220q2 10 -5 18t-16 12q-14 6 -24 -7q-9 -12 -11 -25t-4 -27q-2 -23 -4.5 -47t2.5 -48q2 -7 9 -14t14 4q10 22 18 45q5 19 9 38t9 37
q3 7 3 14z" />
    <glyph glyph-name="e" unicode="e" 
d="M253 148q-17 -19 -30 -31t-35 -20q-18 -7 -37.5 -7.5t-38.5 2.5q-25 5 -48 16t-40 29q-18 18 -25.5 49.5t0.5 55.5q4 18 15 34.5t25.5 26t29 10t26.5 -14.5q8 -8 12.5 -24t-4.5 -27q-5 -9 -12 -13t-14.5 -5.5t-15.5 -3t-16 -5.5l-3 -3l-1 -5q1 -6 2 -17t7 -24.5t18.5 -28
t36.5 -26.5q25 -13 56 -10q36 3 61 28q14 12 21.5 21.5t21.5 26.5q14 18 24.5 32t19.5 30q5 0 6 -1q5 -2 0.5 -10.5t-6.5 -10.5q-13 -18 -27.5 -37.5t-28.5 -36.5zM58 282q-8 -10 -12 -19t-6 -22q0 -2 6 -2q11 2 20 3.5t17 6.5l11 10q2 8 -2 15t-11 15q-6 4 -13 0
q-3 -2 -5 -3t-5 -4z" />
    <glyph glyph-name="f" unicode="f" horiz-adv-x="205" 
d="M286 629q16 -50 9 -105q-2 -27 -9 -53.5t-19 -49.5q-14 -27 -34 -53t-45 -46q-14 -12 -29.5 -22t-31.5 -18l-19 -7q-8 -3 -17.5 -7t-17.5 -6l-31 -8q-4 -4 -5 -16q-4 -31 -3 -62t3 -63q0 -12 3 -24q0 -13 14 -11q11 2 21 4t21 7q16 9 28.5 20.5t26.5 25.5
q18 22 30.5 47.5t23.5 61.5q2 5 9 5q4 -3 3 -9q-10 -31 -19 -51t-20 -37q-11 -20 -27 -36q-14 -16 -32.5 -28.5t-41.5 -19.5q-3 -2 0.5 -4.5t10.5 -8.5q32 -24 48 -57q23 -61 13 -125q-2 -9 -6.5 -22.5t-12 -23t-18.5 -12.5t-24 8q-16 14 -29 29.5t-21 36.5
q-12 35 -20.5 68.5t-13.5 70.5q0 10 -2.5 20t-9.5 18q-5 5 -4 8v1q0 1 0.5 1t0.5 1q6 9 7.5 16t1.5 18q-2 29 -2 60t3 60q1 7 1 11.5v9.5t-2 7t-6 4q-5 2 -8.5 3t-7.5 3q-65 19 -103.5 66t-52.5 106t-5 122.5t38 116.5q0 1 0.5 1t0.5 1v1q2 0 3 1t3 0q3 -3 3 -4
q-1 -2 -2 -4.5t-1 -4.5q-27 -45 -34 -97.5t1 -103.5q10 -57 35.5 -100t73.5 -73q26 -17 56 -21q2 -1 5.5 1.5t4.5 6.5q2 2 2.5 6t1.5 7l2 26q5 54 11 106t17 106q4 21 12.5 45t21 47t29 42t36.5 30q6 4 12 6.5t13 4.5q43 11 77.5 -12.5t48.5 -68.5zM82 41q-5 4 -10.5 6.5
t-10.5 5.5q-5 2 -10 -1t-5 -8v-9q0 -32 2.5 -62t9.5 -61q6 -35 27 -60q7 -9 19.5 -14.5t21.5 5.5q12 16 14 35t1 38q0 7 -1 14t-1 14q-2 30 -17.5 54.5t-39.5 42.5zM256 426q23 49 28.5 101.5t-10.5 100.5q-8 23 -24.5 41.5t-40.5 25.5q-23 7 -47 0.5t-41 -25.5
q-16 -17 -25.5 -37.5t-14.5 -43.5q-2 -6 -3 -11.5t-2 -11.5q-5 -21 -9.5 -49.5t-8.5 -59l-8 -61t-7 -54.5t-4.5 -40t-1.5 -18q1 -3 4.5 -6t7.5 -3q9 -2 17 0.5t16 4.5q22 7 45 18q42 21 75.5 53.5t53.5 74.5z" />
    <glyph glyph-name="g" unicode="g" horiz-adv-x="266" 
d="M307 96q2 -2 1 -5.5t-4 -3.5q-2 -2 -4.5 -1t-4.5 1q-7 4 -10 5t-11 3q-18 3 -40.5 1t-41.5 -5q-4 -1 -8 -1t-8 -2q-7 -1 -7 -7q1 -6 2 -17t2 -24.5t1.5 -27.5t0.5 -25q2 -24 2.5 -48.5t0.5 -48.5q0 -42 -3.5 -81.5t-13.5 -81.5q-7 -26 -18.5 -45t-34.5 -33
q-28 -18 -60 -17q-20 2 -37.5 7.5t-32.5 18.5q-14 10 -28.5 27t-22.5 33q-5 14 -7 22t-4 22q-5 32 4 65t21 62q23 54 61 98t86 76q12 6 26 14t14 22v3q-3 35 -1 70t-3 70q0 2 -2 2q-1 2 -2.5 1.5t-1.5 -2.5q-3 -9 -6.5 -17t-5.5 -16q-13 -32 -41 -54q-14 -10 -30 -6t-24 18
q-10 17 -14 36t0 39q2 12 6.5 23t9.5 22q6 11 22.5 20.5t29.5 9.5q8 0 24 -2.5t27 -17.5q1 -1 2 -1q3 -2 3 0.5t1 2.5q1 5 2.5 19t1.5 25q1 4 6 6.5t8 2.5q4 0 11.5 -2.5t6.5 -13.5v-19v-31.5t0.5 -34.5t1.5 -26q2 -26 3 -52.5t3 -52.5q0 -8 1 -11q2 -5 8 -5q0 -1 1 -1h2
q25 3 49 4.5t47 -0.5q8 0 17.5 -2.5t15.5 -9.5zM112 270q0 6 -1 7q-5 10 -7 13q-4 5 -17.5 10.5t-25.5 0.5q-6 -3 -10.5 -6.5t-6.5 -9.5q-4 -9 -7.5 -17.5t-5.5 -18.5q0 -2 -0.5 -9.5t-0.5 -16.5t2 -19t7 -18q5 -11 14 -13t18 7q1 0 9 12t12 21q4 11 8 22.5t9 23.5q1 2 2 5
t1 6zM148 -175q0 55 -4.5 109t-10.5 109q-1 6 -1.5 12t-5.5 8q-3 1 -10 -1.5t-15 -7t-14.5 -9t-9.5 -7.5q-13 -11 -25.5 -21.5t-23.5 -22.5q-23 -23 -41 -50.5t-32 -57.5q-13 -26 -20.5 -55t-5.5 -59q1 -25 11 -49.5t29 -43.5q19 -18 44 -27t51 -7q20 2 38.5 12.5t28.5 27.5
q8 14 10 28t4 29q2 20 2.5 41t0.5 42z" />
    <glyph glyph-name="h" unicode="h" horiz-adv-x="400" 
d="M401 190q-8 -17 -15 -30.5t-19 -30.5q-25 -33 -48 -60.5t-58 -38.5q-11 -4 -23 -4t-22 7q-15 9 -20.5 27t-8.5 35q-5 37 -18 71q-2 6 -5 12.5t-9 10.5q-6 2 -13.5 0.5t-12.5 -5.5q-6 -5 -9.5 -10t-7.5 -12q-11 -18 -21 -36t-21 -37q-2 -4 -4.5 -6.5l-4.5 -4.5
q-9 -5 -17.5 0.5t-13.5 14.5q-8 11 -11.5 24t-5.5 27q-41 211 1 420q5 23 11.5 44.5t19.5 41.5q10 16 28 29t38.5 19.5t42 6t38.5 -12.5q15 -11 24.5 -28.5t8.5 -36.5q-1 -18 -8.5 -34.5t-16.5 -32.5q-25 -45 -52 -86.5t-56 -83.5q-12 -17 -24 -35t-17 -39q-4 -14 -5 -29.5
t0 -30.5q0 -30 3 -60t8 -61q2 -6 4 -6q4 -4 10 4q9 11 15.5 23.5t14.5 24.5t19 21.5t25 13.5q23 4 41.5 -12t27.5 -36q9 -22 11.5 -44.5t9.5 -45.5q2 -8 6 -15t12 -9q2 -1 14 1q17 6 30.5 19.5t24.5 27.5q17 20 30.5 42t27.5 49q8 17 12.5 28t7.5 23q2 7 10.5 7.5t10.5 -7.5
q-4 -16 -9.5 -28.5t-10.5 -25.5zM49 467q-1 -14 -2 -27.5t-1 -27.5v-18.5t5 -18.5q2 -2 8 3.5t20 24.5q12 17 24 36.5t23 37.5q15 26 30.5 50.5t30.5 50.5q14 20 18 44q4 15 -1.5 29t-19.5 22q-17 8 -27 11q-23 8 -41 -10q-8 -8 -13.5 -15.5t-8.5 -17.5q-10 -20 -17 -40
t-12 -40q-5 -23 -9.5 -47t-6.5 -47z" />
    <glyph glyph-name="i" unicode="i" horiz-adv-x="230" 
d="M206 212q7 8 12.5 16t11.5 16q3 4 8 4q3 0 4 -1q5 -2 3.5 -7t-3.5 -7t-10 -13t-14 -19q-8 -12 -18.5 -24t-21.5 -23q-16 -16 -39 -22q-33 -10 -63 -7q-19 3 -37 10t-29 24q-11 14 -12.5 30t-1.5 33q0 7 1.5 15t5.5 15t12 10t16 2q17 -3 19 -17q2 -20 1 -39.5t11 -35.5
q7 -11 18 -16.5t23 -7.5q16 -5 35.5 2.5t31.5 19.5q10 11 18.5 21t17.5 21zM31 307q-10 -1 -16 8q-5 9 0 21.5t19 12.5q12 1 16 -5t3 -14t-7 -15t-15 -8z" />
    <glyph glyph-name="j" unicode="j" horiz-adv-x="235" 
d="M62 248q10 -11 15.5 -22.5t10.5 -24.5q11 -29 16.5 -58.5t10.5 -59.5q1 -8 2 -17.5t4 -17t9.5 -11t17.5 1.5q12 5 22.5 13t19.5 17q20 20 33 47.5t15 56.5v21q-1 6 1 7l4 2q7 0 7 -7q1 -7 0.5 -10.5t-0.5 -8.5q-2 -32 -15 -63.5t-36 -54.5q-14 -15 -31 -24.5t-35 -19.5
q-5 -2 -5.5 -6t-2.5 -9q-3 -16 -4 -32t-3 -33q-8 -39 -26 -73.5t-45 -58t-63 -33t-79 1.5q-24 6 -45.5 21t-32.5 37q-8 16 -11.5 34.5t-2.5 36.5q1 33 22 54q19 18 47 27t53 17q27 8 54.5 10.5t57.5 8.5q6 1 13.5 1t12.5 4q7 3 7 7.5t-1 11.5q-2 17 -4 32t-4 29
q-3 23 -6.5 44.5t-4.5 27.5q-3 18 -9.5 34.5t-11.5 21.5q-6 9 -14 8t-10 -4q-4 -5 -8.5 -13.5t-6.5 -6.5q-1 1 -1 4t-1 5q-1 6 2 20q2 9 8 17.5t20 6.5q9 -1 18.5 -7t15.5 -13zM79 -87q9 42 5 77q-2 11 -14.5 11.5t-20.5 -1.5q-40 -5 -79 -11.5t-77 -21.5
q-29 -11 -45.5 -32.5t-14.5 -54.5q1 -37 26 -63.5t61 -34.5q36 -7 68 7t55 43q27 37 36 81zM-2 288q-10 -1 -16 8q-5 10 0 22t19 12q11 1 15.5 -5t3.5 -14t-7 -15t-15 -8z" />
    <glyph glyph-name="k" unicode="k" horiz-adv-x="296" 
d="M454 803q17 -30 19 -66t-6.5 -72t-24 -70.5t-33.5 -61.5q-47 -77 -123 -130q-36 -24 -79 -45t-108 -26q-16 -2 -25.5 -1.5t-24.5 -0.5q-5 -1 -9 -4.5t-3 -8.5q0 -16 2.5 -46t6 -61t7.5 -56.5t7 -33.5q0 -2 1.5 -2.5t2.5 -1.5q2 5 3.5 12t3.5 12q6 20 16 38.5t25 32.5
q5 5 12.5 10t15.5 7.5t16 1.5t14 -8q8 -8 6 -22t-9 -23q-6 -8 -16 -14t-19 -13l-6 -4t-4 -7q-2 -6 4 -12q10 -22 26 -38.5t35 -30.5q8 -4 14.5 -9t14.5 -7q15 -7 32 -1q3 3 6 2q5 -5 5 -8q0 -6 -7 -11t-12 -5l-2 -1q-12 -1 -23.5 5.5t-22.5 11.5q-17 9 -30 20.5t-25 24.5
q-11 11 -20 25t-13 28q-5 10 -1 17q1 3 4 5.5t6 4.5q6 4 13.5 6t13.5 7q11 8 19 21q5 12 -6 17q-9 3 -15.5 -2t-12.5 -10q-8 -8 -16 -18t-13 -21q-9 -16 -11 -34l-8 -45q-1 -6 -6 -11q-3 -8 -14 -10t-21 4t-14 17q-17 57 -20.5 111.5t-7.5 114.5q-2 20 -4.5 27.5t-20.5 15.5
q-28 11 -54 32.5t-49 41.5q-26 25 -41 59t-20.5 71.5t-2 75.5t14.5 72q13 42 46 67q8 6 13 3q4 -3 0.5 -7.5t-6.5 -9.5q-16 -14 -26 -33t-15 -40t-7 -44t-2 -45q1 -45 15 -85t45 -72q2 -2 11.5 -9.5t22.5 -17t27 -19t26 -16t20 -8t8 5.5q6 100 21.5 197t60.5 185
q15 31 40 61.5t56.5 52.5t67.5 32t74 1q42 -11 80 -35.5t59 -62.5zM447 652q8 36 10 74t-17 71q-17 28 -42 47.5t-54 31.5q-26 12 -54 11.5t-54 -10t-49.5 -26.5t-40.5 -38q-24 -29 -41.5 -62.5t-30 -70t-20.5 -74.5t-12 -75q-6 -39 -7 -79t1 -79q1 -4 0.5 -7t-0.5 -6
q1 -10 13 -12q9 1 18.5 0t20.5 1q61 2 119.5 27t107 66.5t83.5 95.5t49 114z" />
    <glyph glyph-name="l" unicode="l" horiz-adv-x="239" 
d="M239 244q2 7 8 5q7 -2 8 -6q2 -3 -0.5 -8l-4.5 -9q-11 -26 -25.5 -48t-32.5 -45q-10 -13 -21.5 -24.5t-25.5 -20.5q-14 -8 -31 -11t-32 2q-21 7 -35 25t-22 38l-8 23q-22 63 -23 130.5t7 133.5q8 69 23.5 136t44.5 130q16 33 36.5 63.5t50.5 50.5q18 12 38 19t41 7
q28 3 47 -9q22 -14 27 -42t1 -54q-5 -42 -18.5 -80.5t-30.5 -75.5q-38 -85 -92 -157t-121 -135q-3 -3 -5.5 -6t-3.5 -6q-2 -4 -2 -7.5t1 -6.5q5 -34 12 -67.5t27 -61.5q8 -11 20 -20t26 -7q11 1 19 7t16 14q49 52 81 123zM51 481q-7 -48 -12 -96.5t-3 -96.5q38 35 74.5 75.5
t65.5 85.5q26 40 47.5 82t39.5 85q12 29 21.5 58.5t13.5 60.5q2 17 1.5 33.5t-11.5 30.5q-11 12 -24 16.5t-27 4t-27.5 -6t-24.5 -12.5q-27 -19 -45 -46t-32 -57q-23 -52 -35.5 -106t-21.5 -111z" />
    <glyph glyph-name="m" unicode="m" horiz-adv-x="612" 
d="M613 211q-2 -9 -10.5 -29t-12.5 -32q-6 -15 -16 -34.5t-15 -28.5q-11 -18 -21.5 -31t-24.5 -27q-14 -12 -30.5 -14t-32.5 3q-21 5 -32 17.5t-17 29.5q-5 17 -6 33t-1 33v12t0.5 20t0.5 20.5v14.5q-2 6 -3 11.5t-4 10.5q-6 10 -17 11t-19 -6q-28 -22 -44 -54
q-11 -18 -17 -37t-13 -38q-1 -3 -3 -7.5t-5 -8.5t-6.5 -5.5t-7.5 2.5l-7 7q-4 5 -6 11t-4 13q-4 17 -7 34t-8 34q-3 19 -12 36q-7 9 -18 7t-16 -9q-9 -11 -17 -21t-16 -21l-35 -54q-8 -14 -16.5 -26t-20.5 -22q-13 -12 -24 -6.5t-19 20t-13.5 35.5t-9.5 41t-5.5 36.5
t-1.5 21.5q-2 17 -3.5 34t0.5 34q3 15 17 13q16 -1 22 -16q2 -2 2 -4.5t1 -4.5q6 -45 7.5 -88t12.5 -86q0 -2 1 -3t2 -3q2 -6 6 -4t8.5 6.5t9 10t6.5 7.5q19 28 36 56t41 53q14 15 34 20q18 4 29.5 -4t17.5 -22t9 -30.5t5 -28.5q2 -8 2 -17.5t2 -15.5q1 -1 2.5 -2t1.5 1
l9 21q9 28 27 54q8 11 18.5 23t23.5 20q14 8 34.5 7.5t31.5 -12.5q19 -25 20 -56q0 -13 -1 -16q-1 -22 -2 -46.5t1 -42.5q2 -14 7.5 -23t16.5 -16q13 -7 26 -4t23 12t25 28t23 34q3 6 7.5 16.5t9.5 21.5t9 20.5t6 13.5q3 8 7 19t8 21.5t7 18.5t4 10q1 0 4 0.5t4.5 -2t0 -9.5
t-8.5 -22z" />
    <glyph glyph-name="n" unicode="n" horiz-adv-x="392" 
d="M392 238q2 2 2.5 3.5t4.5 0.5q7 0 4 -10q-3 -22 -11 -50t-20 -55.5t-27.5 -52t-34.5 -40.5q-29 -26 -51.5 -26.5t-38.5 17.5t-24 49t-7 68q1 20 3 43t-7 40q-8 15 -19 15.5t-21.5 -5.5t-19.5 -16t-13 -16q-25 -42 -38.5 -83t-26.5 -83q0 -2 -1.5 -3.5t-2.5 -3.5
q-2 -3 -7 -4.5t-8 1.5q-2 3 -4 5t-2 4q-6 12 -8.5 23.5t-4.5 22.5q-5 42 -11 84.5t1 84.5q3 15 20 17q9 0 15 -7q5 -10 4 -20.5t0 -19.5q0 -15 0.5 -29t-0.5 -28q-2 -16 -0.5 -30.5t4.5 -28.5q3 -3 5 -3l1 1q2 0 2 2q12 29 21.5 57t29.5 54q17 21 39 36t51 7q20 -5 27 -26
q8 -19 8 -41.5t-3 -43.5q0 -14 0.5 -37.5t7 -43t21 -29.5t42.5 2q7 4 17 15.5t20 26.5t19 30.5t14 28.5q3 10 7.5 22.5t9 25.5t8 25.5t3.5 23.5z" />
    <glyph glyph-name="o" unicode="o" horiz-adv-x="284" 
d="M125 271q5 -5 7 -6.5t7 -9.5t4.5 -13t4.5 -11q9 -8 23.5 -15t24.5 -9q23 -5 47 0t36 27l5 10q2 7 8 1q5 -2 3 -7.5t-4 -7.5q-14 -30 -44 -36t-60 0q-12 2 -24.5 8.5t-17.5 10.5q0 -5 -0.5 -12.5t-1.5 -12.5t-2 -9t-5 -17q-11 -30 -33 -52q-11 -11 -26 -17t-30 -4
q-13 1 -24.5 8.5t-19.5 18.5q-8 10 -12 22.5t-6 26.5q-3 20 0.5 41t14.5 38q10 19 30 27q11 4 22.5 6.5t23.5 4.5q13 2 26.5 0.5t22.5 -11.5zM82 267q-5 -4 -7.5 -9.5t0.5 -10.5q12 -15 31 -15q5 1 7 1.5t6 2.5q2 1 2.5 4.5t-0.5 5.5q-3 9 -14 16.5t-20 5.5q-1 -1 -5 -1z
M126 202q0 12 -8 14h-8q-11 -1 -20 2.5t-18 9.5q-2 2 -5.5 3.5t-6.5 3.5q-10 4 -15 -4q-6 -6 -6 -9q-9 -23 -9 -47q0 -30 9 -52q5 -11 15 -13.5t21 1.5q7 2 11.5 6t9.5 9q21 22 27 51q1 5 2.5 11.5t0.5 13.5z" />
    <glyph glyph-name="p" unicode="p" horiz-adv-x="280" 
d="M296 239q-2 -3 -7.5 -11t-10.5 -13q-5 -7 -12 -15t-12 -13l-23 -23t-26 -19q-11 -7 -23.5 -9t-21.5 -13q-10 -11 -22.5 -23.5t-26.5 -19.5q-14 -6 -28.5 -2.5t-25.5 13.5q-11 8 -14 24q-2 13 7.5 18.5t18.5 7.5t19 2.5t20 2.5q7 1 15.5 1.5t14.5 5.5q8 6 10 17t4 21
q2 14 2.5 27t-1.5 27q0 17 -15 28q-9 8 -19 7.5t-19.5 -6t-17.5 -14t-12 -17.5q-3 -5 -5.5 -10.5t-4.5 -10.5q-5 -11 -9 -21.5t-8 -21.5q-7 -18 -7 -35q0 -18 1 -35t3 -34q4 -31 6 -64q4 -35 7.5 -71t5.5 -71l3 -73q1 -14 -5.5 -25.5t-20.5 -16.5q-11 -5 -22 3.5t-16 17.5
q-14 28 -19.5 57.5t-5.5 59.5t4 60.5t9 59.5q5 27 12 55.5t5 55.5v66v6t-2 6l-1 1q-5 2 -6 10.5t-1 12.5q1 12 5 20q3 10 4.5 20.5t5.5 19.5q2 7 10 12.5t15 0.5q9 -5 8 -16t-2 -19q-3 -26 -3 -50l2 -2q1 -1 2.5 -0.5t1.5 2.5q7 16 13 32.5t20 27.5q11 11 27.5 16.5
t32.5 5.5q16 1 28 -8t20 -23q11 -24 9.5 -46.5t-5.5 -46.5q0 -4 3 -6.5t6 -0.5q22 8 36.5 25t33.5 37l13 18q5 6 11.5 4.5t5.5 -9.5zM26 -208q0 2 -1 12.5t-2 23.5t-2 26.5t-1 21.5l-2 11q-1 22 -2 43t-3 43q-1 11 -1 21t-2 21q-1 3 -1 15v6q0 5 -2.5 4.5t-3.5 -5.5
q-6 -22 -9.5 -45t-5.5 -46q-4 -23 -4.5 -46.5t3.5 -47.5q3 -18 8.5 -39.5t19.5 -35.5q5 -5 8 3.5t3 13.5zM128 120q3 8 -3 11q-2 1 -10 1q-12 -1 -25.5 -2t-24.5 -7q-4 -1 -5 -5t0 -7q10 -18 27 -22q13 -3 24.5 9t16.5 22z" />
    <glyph glyph-name="q" unicode="q" horiz-adv-x="245" 
d="M280 -122q4 -3 0 -9q-16 -28 -46.5 -35.5t-59.5 -5.5q-25 2 -48.5 10.5t-44.5 20.5q-11 7 -21 0q-13 -7 -27 -6t-26.5 7t-23.5 16t-18 22q-9 13 -15 32q-2 3 -3.5 10t-1 13.5t3.5 10.5t10 2q7 0 8 -1q26 -14 45.5 -34t42.5 -38q7 -6 11 -0.5t6 10.5q8 22 16 42t15 42
q9 34 14 67.5t10 67.5q1 3 5 24t7.5 45t4.5 43.5t-4 19.5q-3 0 -6.5 -8t-4.5 -10q-4 -7 -6.5 -12t-7.5 -11q-7 -11 -18 -23t-24 -20t-27 -9.5t-27 9.5q-23 19 -24.5 45t6.5 52q5 15 11.5 25.5t17.5 21.5q5 7 13 11t16 6q12 3 24 4t23 -2q15 -3 19 -10q2 -2 2 -6t-3 -4l-9 2
q-20 6 -30.5 1t-20.5 -17q-14 -17 -18 -42q-2 -15 -2 -32.5t5 -33.5q6 -12 16.5 -7.5t21.5 16t20 24.5t11 18q9 17 18 33.5t17 33.5q2 7 6 11q6 7 16 3q8 -5 9 -10q1 -2 2 -5t1 -5q0 -45 -4 -90t-11 -90q-7 -46 -19 -90t-32 -86q-8 -17 -17 -32.5t-20 -29.5q-1 0 -1 -2
q0 -1 -1 -1q-2 -2 -1.5 -5t2.5 -4q11 -9 26.5 -17t29.5 -11q33 -8 67.5 -4.5t58.5 31.5q2 1 3 2.5t3 2.5q5 5 9 1zM43 -133q5 2 5.5 6.5t-1.5 8.5q-3 5 -7 9l-9 9q-9 7 -17 13.5t-16 13.5q-13 12 -29 23q-3 1 -6 -1t-3 -5q0 -13 6 -26.5t14 -23.5q18 -18 39 -28q9 -4 24 1z
" />
    <glyph glyph-name="r" unicode="r" 
d="M145 211q-2 -16 -6 -32t-6 -33q-6 -36 -2 -70q2 -16 13.5 -22.5t27.5 -1.5q12 4 22.5 11t19.5 16q34 35 53.5 73.5t30.5 64.5q2 5 5 14t5 13q7 6 13 0q-1 -4 -4.5 -14t-5.5 -16l-8 -21q-5 -10 -9.5 -20t-10.5 -22t-15.5 -26.5t-23.5 -33.5q-11 -16 -25.5 -29t-31.5 -22
q-19 -11 -37 -11q-28 3 -42 26q-11 18 -16 39.5t-4 42.5q0 18 3 36.5t5 36.5q2 14 -11 15q-9 1 -17 0.5t-16 1.5q-4 2 -16 5t-17 3t-6 -1q-4 -4 -8 -5q-1 -1 -6 -1q-2 2 -2 5.5v6.5q0 5 -0.5 9.5t-2.5 9.5q-4 5 -8.5 9.5l-9.5 9.5q-25 28 -25 71q-2 26 11 43q11 19 32 23
q10 2 20 -1t17 -11q10 -11 12 -27q5 -23 0.5 -45t-9.5 -45q-1 -5 -1 -10.5t2 -10.5q4 -9 15 -12.5t20 -3.5q19 -2 39 0q38 0 36 -38zM28 347q4 18 -7 41q-4 6 -10.5 8.5t-13.5 -0.5q-17 -8 -22 -26q-3 -22 1 -45t22 -39q12 -9 17 3q5 14 8 29t5 29z" />
    <glyph glyph-name="s" unicode="s" horiz-adv-x="205" 
d="M214 247q5 -1 2 -10.5t-4 -11.5q-9 -31 -19 -53t-21 -39t-22.5 -31t-23.5 -29q-10 -12 -25 -29.5t-22 -28.5q-5 -6 -4.5 -14.5t-1.5 -15.5q-2 -11 -4.5 -22t-5.5 -22q-5 -16 -12.5 -31t-18.5 -29q-11 -12 -19 -16q-5 -3 -12 -3.5t-12 3.5q-8 5 -9.5 14t0.5 18
q4 21 19.5 37.5t25.5 34.5q7 15 7.5 32t-1.5 33q-6 54 -18.5 108t-14.5 108q0 14 1.5 27.5t12.5 24.5q8 10 21.5 13t24.5 -2q3 0 5.5 -2t1.5 -5q-1 -4 -5.5 -4.5t-8.5 -1.5q-11 -5 -11 -13q-2 -5 -1.5 -9t1.5 -9l33 -221q0 -8 6 -8q1 0 6 3q13 16 21 26t15.5 19t15 19
t18.5 25q12 16 21 34.5t15 34t9.5 27.5t5.5 16q1 4 8 3zM13 -118q2 2 2.5 3t2.5 2q18 22 15 51q0 1 -0.5 1t-0.5 1v1q-1 1 -2.5 0.5t-1.5 -1.5q-9 -11 -17.5 -20.5t-14.5 -23.5q-1 -3 -1.5 -6.5t1.5 -7.5q6 -8 17 0z" />
    <glyph glyph-name="t" unicode="t" horiz-adv-x="346" 
d="M346 244q6 5 9.5 1t1.5 -9q0 -2 -2.5 -9t-6.5 -16t-7.5 -17t-5.5 -11q-24 -48 -44.5 -85t-49.5 -72q-18 -22 -38 -40t-37 -30q-23 -17 -46.5 -15.5t-45.5 19.5q-17 15 -28.5 35t-19 42t-12.5 45t-9 44q-8 42 -8.5 84t4.5 84q3 32 7 68.5t6 78.5q0 8 -11 13q-7 2 -27 3.5
t-43 3t-44.5 2.5t-31.5 1q-3 0 -16.5 1t-32 1.5t-39.5 1.5t-38.5 2t-29 1h-11.5h-38q-16 0 -33.5 -0.5t-30.5 0.5q-5 1 -9.5 5t2.5 9q4 3 9 3q14 2 28 2h28q18 0 52 -1t74 -2.5t82 -3.5t76.5 -3.5t56.5 -2.5t23 -1q7 0 12 8l9 25q2 8 4 17t5 18q5 16 15.5 30t27.5 17
q30 8 41 -23q6 -16 8.5 -32.5t-2.5 -32.5q0 -5 -1 -9.5t-1 -9.5q0 -7 6 -8q2 -2 5.5 -2.5t5.5 -0.5q8 0 29.5 -2t45.5 -4.5t44.5 -5t26.5 -3.5q5 -2 9 -5t4 -9q1 -3 0 -7.5t-6 -2.5q-14 4 -39.5 7t-50.5 5.5t-44.5 3.5t-22.5 1q-7 -1 -12.5 -3t-8.5 -8q-2 -3 -9 -14
t-15 -25.5t-16.5 -28.5t-13.5 -23q-9 -16 -12 -33t-5 -35q-3 -38 -1.5 -81t6.5 -81q2 -15 7.5 -42.5t17 -53.5t29 -43t42.5 -11q15 3 29 14t26.5 24.5t22.5 27.5t17 23q12 17 39 62.5t62 123.5zM79 490q-1 -1 1 -8q3 -8 14 -6q8 3 11 11q5 8 6 17t1 19q0 8 -0.5 15.5
t-3.5 15.5q-4 5 -10 4q-5 -5 -9 -13q-2 -8 -3.5 -15.5t-3.5 -14.5q-1 -5 -2 -14t-1 -11zM71 439q-1 -2 -2 -11t-2 -19.5t-2 -19.5t-1 -10q0 -2 2 -2q0 1 3 7.5t7 15l8 17t7 14.5v7q0 13 -12 8q-4 -1 -8 -7z" />
    <glyph glyph-name="u" unicode="u" horiz-adv-x="350" 
d="M309 174q8 11 19.5 26t21.5 44q3 5 5.5 4t4.5 -3q2 -5 -1.5 -14.5t-5.5 -14.5q-11 -21 -24 -38t-25 -29.5t-21.5 -21t-13.5 -12.5q-21 -21 -53 -18q-18 0 -30.5 9.5t-20.5 24.5q-2 3 -4 5t-4 0q-1 0 -4 -3q-16 -29 -28 -42t-38 -15q-42 -5 -65 22.5t-25 79.5q0 9 -0.5 28
t2.5 37.5t10.5 31t24.5 7.5q13 -4 15 -19q3 -8 1 -24q-1 -20 -3 -31t-3 -20t-0.5 -20t4.5 -32t12 -29.5t25 -7.5q8 0 18.5 7.5t20 22t17.5 34.5t11 46q2 8 2 16t5 15q3 5 9 8t12 3q12 0 20 -12q4 -5 4 -11.5t1 -11.5q0 -22 -1 -43t7 -41q3 -7 14.5 -13t30.5 4q23 20 33 30
t20 21z" />
    <glyph glyph-name="v" unicode="v" horiz-adv-x="344" 
d="M222 214q-3 -6 -5 -14t3 -14q2 -6 8 -8.5t12 -3.5q17 -3 31.5 2.5t27.5 14.5q13 11 26.5 26t18.5 27q3 3 5 3q4 1 7 -2q4 -4 1.5 -10t-5.5 -11q-13 -20 -27.5 -34.5t-34.5 -24.5q-22 -11 -39 -11.5t-40 7.5q-4 3 -7 -6q-14 -29 -28.5 -59t-34.5 -56q-14 -19 -36 -30.5
t-45 1.5q-11 6 -19 16t-13 21q-6 11 -8.5 23t-4.5 25q-5 23 -9.5 45.5t-6.5 45.5q-1 9 -2.5 20.5t-0.5 23t4.5 21.5t12.5 15q5 4 14 2q6 -4 8.5 -10t2.5 -12q1 -36 4.5 -72t9.5 -71q2 -15 5 -29t9 -27q3 -6 6.5 -12t9.5 -8q8 -2 16.5 2t14.5 10q11 11 19 22t15 22
q6 10 12.5 24t12.5 27t10.5 23.5t5.5 12.5v4t-4 5q-25 22 -48 56q-8 14 -15 29t-9 32q-5 37 21 60q13 11 30.5 14t34.5 -4q15 -7 26 -21t16 -31q6 -26 -1.5 -51t-16.5 -50zM186 207q3 -4 7.5 -3.5t6.5 5.5q5 12 9 24.5t8 25.5q5 19 5 39.5t-13 37.5q-11 12 -25.5 17
t-28.5 -7q-8 -6 -11.5 -17t-4.5 -21q-1 -16 3 -30t11 -28q6 -12 15.5 -22t17.5 -21z" />
    <glyph glyph-name="w" unicode="w" horiz-adv-x="375" 
d="M376 245q2 4 4 6t7 -1q6 -4 2.5 -11.5t-7.5 -10.5q-11 -21 -27 -32t-37 -15q-13 -1 -26 4t-24 13q8 -29 6 -59t-11 -58q-5 -17 -12.5 -32t-21.5 -24q-12 -10 -28.5 -12t-31.5 6q-17 7 -27 22.5t-21 31.5q-3 3 -6 7t-5 -4q-3 -14 -8 -26.5t-15 -22.5q-8 -11 -21.5 -16.5
t-27.5 -0.5q-13 4 -21 16q-11 11 -16 24t-7 29q-5 22 -5 45t2 46q2 19 3.5 37.5t3.5 38.5q2 5 2.5 10t4.5 8q11 11 23 0q11 -8 11 -19q2 -6 1 -12.5t-1 -12.5q-4 -29 -8 -57.5t-2 -57.5q2 -14 4.5 -28.5t7.5 -28.5q5 -11 14 -14q7 -3 13 2t11 11q11 17 15 36t4 37
q0 8 0.5 15t2.5 13q2 5 7.5 9.5t12.5 2.5q7 0 11.5 -5t6.5 -12q7 -27 15.5 -54.5t31.5 -46.5q14 -11 24 -9.5t19 10.5t14 21.5t9 24.5q11 52 1 103q-1 5 -3 10l-4 10q-5 9 -15 14t-18 11q-7 4 -13 8.5t-9 10.5q-8 13 0 30q5 5 12.5 6.5t13.5 0.5q8 -2 13 -6.5t10 -9.5
q14 -14 18 -32q2 -4 3 -8.5t3 -7.5q6 -7 14 -12q8 -7 17 -12t19 -6q20 -2 35.5 14.5t26.5 31.5zM236 245q2 1 2.5 2t2.5 1q-5 9 -10 16.5t-16 10.5q-1 1 -6 -1q-1 -1 -1.5 -4t1.5 -5q5 -6 10.5 -11.5t13.5 -8.5q1 -2 3 0z" />
    <glyph glyph-name="x" unicode="x" horiz-adv-x="134" 
d="M117 79q9 -5 15.5 -11t-5.5 -16q-7 -7 -20 -2q-11 6 -20.5 17t-17.5 24t-15 27t-13 27q-11 23 -17 33l-12 23l-1 -2t-5.5 -9t-13 -21t-23.5 -39q-9 -17 -20 -35t-21 -34q-3 -3 -8 -6.5t-8 -1.5q-9 5 -3 11q11 20 24.5 41t25.5 41q17 26 32 50t13 33q-2 6 -7.5 17
t-12.5 22.5t-14.5 22.5t-13.5 18q-8 8 -11 6l-1 -1q-1 -1 -1.5 -3t-2.5 -4q-2 -3 -6.5 -1t-8.5 6q-4 10 2 16q8 11 21.5 13.5t24.5 -3.5q3 -2 10 -11t14 -20t13.5 -22.5t9.5 -18.5t6 -7q1 0 7.5 8.5t14.5 20t16 24t13 20.5l7 10q5 8 10 0.5t2 -13.5q-2 -5 -11 -20t-19 -30.5
t-18.5 -28t-9.5 -12.5l12 -38q8 -20 17 -40t19 -42q6 -12 14.5 -22t16.5 -17z" />
    <glyph glyph-name="y" unicode="y" horiz-adv-x="298" 
d="M308 98q0 -1 -3 -4q-5 -3 -13.5 -1t-13.5 3q-24 2 -48 -6t-45 -16q-5 -1 -9 -3l-8 -4q-4 -1 -4 -8q0 -16 5 -30q8 -23 22 -64.5t26.5 -89t20 -95t2.5 -81.5q-3 -23 -10.5 -47t-21 -44t-32.5 -34t-45 -17q-40 -5 -73 7.5t-57 37t-37 58t-13 71.5q0 51 12.5 95.5t34 83.5
t50 72.5t60.5 63.5q11 11 8 24l-1 2q-8 26 -12 53t-13 53q-2 5 -9 3q-6 -5 -12 -11t-13 -11q-11 -9 -26 -5q-21 8 -28 30t-7 42v8q0 6 9 15.5t16 10.5q9 2 13 -6.5t2 -16.5q-1 -7 -1 -21t3 -25.5t9 -16t18 8.5q4 5 7.5 10t8.5 10q6 8 5.5 17t-2.5 19q-2 48 24 84
q14 18 36 11q17 -8 14 -24q-8 -35 -27 -60q-12 -18 -6 -36q3 -16 6.5 -31.5t6.5 -32.5q4 -13 7 -25t6 -25q2 -7 5.5 -12t12.5 -3q5 1 27.5 8t47.5 12.5t45 5.5t20 -13zM114 283q1 -4 1.5 -6.5t0.5 -4.5q3 -3 4 -3q4 -2 5 2q13 16 16 39q1 2 -1 5.5t-5 3.5q-6 1 -9 -2l-6 -8
q-2 -7 -3 -13.5t-3 -12.5zM178 -140q-11 42 -23.5 82t-26.5 80q-6 19 -21 6l-7 -7q-31 -33 -58.5 -70t-46 -78t-26.5 -85t0 -91q4 -20 13 -42t20 -37q21 -28 57.5 -41t70.5 -8q32 4 53.5 27.5t26.5 54.5q4 25 2 52t-7.5 54t-13 53t-13.5 50z" />
    <glyph glyph-name="z" unicode="z" horiz-adv-x="341" 
d="M206 140q17 -34 14 -67.5t-10 -68.5l-4 -15q-2 -12 3.5 -17t14.5 -6t19.5 0.5t17.5 3.5q53 12 87 55q12 14 21.5 34t13.5 41.5t2 43.5t-13 40q-5 8 -5.5 9.5t-5.5 6.5q-4 5 -5 7.5t3 7.5q7 4 12 -2q10 -13 15 -26q6 -15 9.5 -37t0.5 -47q-2 -14 -8 -33t-11 -29
q-24 -47 -62 -68t-75 -23q-9 -1 -18 -0.5t-19 -1.5q-9 0 -17 -8q-3 -5 -6.5 -10t-6.5 -11q-11 -21 -26 -38.5t-32 -34.5q-8 -7 -20 -15t-25.5 -15.5t-27.5 -14t-24 -9.5q-20 -6 -40.5 -4.5t-40.5 8.5t-37.5 19.5t-30.5 29.5q-11 14 -15.5 30t-6.5 34q0 25 8 48.5t25 41.5
q15 16 35 21.5t42 5.5q25 -1 57 -7t72 -20l43 -12q5 -2 10.5 -4t10.5 -2q3 -2 7 0.5t5 5.5q4 13 6 24q13 48 9 96q-1 24 -12 39.5t-28 29.5q-15 15 -39 18h-8t-8 2q-3 1 -5 5t-1 7q6 8 11 16q10 15 14 34q1 6 -1 12t-7 10q-14 12 -31.5 3.5t-31.5 -22.5q-3 -3 -7.5 -9.5
l-9 -13t-8.5 -12t-5 -8.5q-2 2 -2.5 5t-1.5 5q0 2 0.5 6.5t3.5 9.5q5 19 26 40q19 19 47 27q12 4 23.5 -0.5t20.5 -13t14.5 -19.5t4.5 -21q-1 -9 -3 -18l-4 -18q-3 -8 4 -14q11 -9 20.5 -14t20.5 -13q9 -8 17.5 -18.5t14.5 -21.5zM149 -53q0 2 -2 10l-8 4q-31 14 -63.5 25
t-66.5 16q-12 2 -26 4t-28.5 2t-27.5 -3t-23 -12q-15 -12 -24.5 -28t-12.5 -34t0 -36.5t13 -34.5q16 -26 44.5 -40t58.5 -14q35 0 63 16q20 9 35.5 24.5t29.5 32.5q3 4 9.5 12t12.5 17.5t11 19.5t5 19z" />
    <glyph glyph-name="braceleft" unicode="{" horiz-adv-x="254" 
d="M114 676q1 -27 3.5 -56.5t2 -59t-6 -57.5t-20.5 -53q-8 -14 -18 -26.5t-20 -23.5q-9 -8 -12 -14t6 -17q20 -20 37 -48t28 -55q5 -15 8 -30t5 -30q1 -9 3.5 -35t5 -57t5.5 -61.5t5 -46.5q1 -9 2 -21t3.5 -23.5t8 -20.5t15.5 -13q11 -3 22 -3.5t20 4.5q6 3 9.5 1.5t4.5 -5
t-1.5 -7.5t-9.5 -6q-33 -11 -57 -0.5t-39.5 33t-24 52t-10.5 55.5q-2 33 -4.5 66t-2.5 66q0 31 -5 62t-19 59q-5 11 -10 23.5t-15 21.5q-6 6 -17.5 13t-10.5 18q1 7 8 12.5t12 8.5q14 13 23 30.5t16 34.5q9 28 7.5 58.5t-1.5 59.5q0 32 -2 63t3 63q4 29 20 59.5t39 48.5
q24 20 53 18q3 0 10.5 -1.5t15 -4t13 -6.5t4.5 -9q-1 -2 -8 -0.5t-15.5 4t-16.5 5t-11 2.5q-12 -2 -22.5 -11t-17.5 -18q-9 -12 -14 -29t-7 -34.5t-1.5 -33.5t1.5 -25z" />
    <glyph glyph-name="bar" unicode="|" horiz-adv-x="149" 
d="M39 770q9 0 9 -8v-811q0 -8 -9 -8q-6 0 -6 8v811q0 8 6 8z" />
    <glyph glyph-name="braceright" unicode="}" horiz-adv-x="289" 
d="M102 796q-7 9 -18 18t-22 11q-4 0 -12 -2.5t-16.5 -5t-15 -4t-7.5 0.5q-2 4 3.5 8t13.5 7t15.5 4.5t10.5 1.5q29 0 52 -18t39 -48.5t21 -59.5q5 -32 2.5 -63t-2.5 -63q0 -29 -1.5 -60t8.5 -59q6 -17 15 -34.5t23 -29.5q5 -3 12.5 -8.5t8.5 -12.5q0 -11 -11 -18.5
t-17 -13.5q-10 -9 -15.5 -21t-10.5 -24q-14 -28 -19 -59t-5 -62q0 -33 -2.5 -65.5t-4.5 -66.5q-2 -26 -10 -55t-23.5 -51.5t-39.5 -33t-58 0.5q-6 2 -8.5 6t-2 7.5t4 5t9.5 -1.5q10 -5 20.5 -5t21.5 4q10 4 15.5 13t8.5 20.5t4 23.5t2 21q1 16 3.5 46.5t5.5 61.5t5.5 57
t3.5 35q3 14 5.5 29.5t8.5 29.5q11 28 27.5 56t36.5 48q10 11 6.5 17t-12.5 14q-21 24 -37 49q-15 25 -20.5 53t-5.5 57.5t2 59t2 56.5q1 10 1.5 26t-1.5 33.5t-6.5 34.5t-13.5 29z" />
    <glyph glyph-name="asciitilde" unicode="~" horiz-adv-x="154" 
d="M90 646q8 -10 16.5 -6t6.5 18q0 2 -2 6.5t4 4.5t7 -8.5t-1 -13.5q-2 -11 -11.5 -17t-20.5 -4t-16 11.5t-13 15.5q-8 5 -19 4.5t-11 -11.5q0 -5 2 -8.5t0 -5.5q-5 -5 -6.5 2.5t-1.5 10.5q-2 14 8 19t21 5q11 1 20 -6t17 -17z" />
    <glyph glyph-name="cent" unicode="&#xa2;" horiz-adv-x="231" 
d="M134 296q2 -4 9.5 -8.5t16 -9.5t14.5 -10.5t4 -11.5t-6.5 -5.5t-10 3t-11 6t-8.5 4.5q-4 0 -6 -5.5t-2.5 -13t-0.5 -15.5v-12q0 -23 -1 -46.5t1 -47.5q0 -7 1.5 -14t9.5 -10q4 -2 12.5 0.5l17 5t15 3t6.5 -6.5q0 -9 -9.5 -14t-21.5 -9t-21.5 -6.5t-9.5 -6.5
q1 -14 0.5 -29.5t1.5 -26.5q3 -36 -16 -32q-5 1 -6 13t-1.5 26t-1 27t-3.5 17q-6 12 -14.5 15.5t-19.5 8.5q-14 7 -26.5 16t-21.5 21q-20 26 -21.5 55t12.5 58q16 31 44 47q13 6 26.5 10t23.5 6q0 8 0.5 20t0.5 24t0.5 23t0.5 17q0 4 3.5 7t8 4t8 -1.5t3.5 -9.5q0 -9 -1 -22
t-1.5 -26t-0.5 -24t2 -14zM100 262q-8 -5 -16.5 -14t-11.5 -16q-5 -11 -6.5 -22.5t-2.5 -22.5q0 -21 4 -46.5t24 -37.5q11 -6 14.5 -1.5t3.5 15.5q1 8 1 18v20v23v24t-1 21q-1 17 -2.5 29.5t-6.5 9.5z" />
    <glyph glyph-name="sterling" unicode="&#xa3;" horiz-adv-x="448" 
d="M272 309v-18.5v-22.5t1.5 -21t4.5 -14t10 -4t13 1q3 1 10.5 3t15 3.5t14 2t8.5 -1.5q6 -5 4 -9.5t-7.5 -8t-11.5 -6t-9 -3.5q-12 -4 -25.5 -5.5t-23.5 -8.5q-11 -9 -13 -20t-7 -22q-9 -30 -27.5 -56t-41.5 -46q-8 -7 -2.5 -9.5t12.5 -4.5q34 -10 68.5 -22t68.5 -14
q23 -1 46 2.5t40 16.5l11 7q10 1 11 -4q3 -5 -3 -11q-7 -11 -17.5 -17.5t-21.5 -10.5q-20 -8 -42.5 -7.5t-44.5 2.5q-54 9 -107 27q-12 5 -25 8t-27 1q-18 -2 -32.5 -13t-31.5 -14q-22 -4 -47 9q-24 13 -35 36q-5 12 -3 25.5t12 22.5q10 8 22.5 9.5t24.5 -2.5
q11 -3 22.5 -8.5t22.5 -10.5q7 -2 14.5 -3.5t15.5 0.5q10 4 21 15q11 12 19.5 27t16.5 30l6.5 13t6 14.5t3 15t-3.5 13.5q-3 5 -11 6.5t-17 1.5t-18 -1t-13 -1q-3 -1 -9 -2.5t-12 -1.5t-10 2t-2 9q2 5 9 8.5t16 5.5t17.5 3t13.5 1q11 0 24.5 1t19.5 15q5 14 4 32.5t-2 30.5
q0 12 1 28t4.5 32.5t12 31t23.5 23.5q17 10 38.5 7t37.5 -14q12 -9 18.5 -22.5t4.5 -29.5q0 -5 -4 -8q-5 -1 -10 5l-3 10q-4 19 -22 29q-18 11 -27.5 2.5t-13.5 -25.5t-4.5 -36.5t-1.5 -28.5zM59 66q-13 2 -24.5 -3.5t-7.5 -22.5q3 -14 14.5 -20.5t24.5 -9.5q14 1 21.5 7.5
t18.5 19.5q1 7 -4 12t-13 8.5t-16.5 5.5t-13.5 3z" />
    <glyph glyph-name="yen" unicode="&#xa5;" horiz-adv-x="310" 
d="M41 145q-6 7 -5.5 11.5t5 7.5t11 5t12.5 3q7 2 17.5 4t13.5 10q2 5 0.5 8t-3.5 6l-10 18q-13 19 -26.5 36t-25.5 35q-4 5 -10.5 13.5t-11 18t-4 18t9.5 13.5q8 5 15.5 2t13.5 -8l27 -27q14 -16 24 -33t21 -34l24 -34q5 -6 11 -13t15 0q1 1 13.5 14t27.5 29.5t28 31
t16 19.5q4 5 10.5 13.5t13.5 6.5q9 -3 7 -11.5t-8.5 -18t-14.5 -18t-11 -11.5q-3 -5 -9.5 -11.5t-12.5 -13.5t-11 -13t-6 -8q-5 -5 -11 -11.5t0 -6.5l39 2q7 1 16 1.5t14 -5.5q5 -5 1.5 -10.5t-10.5 -7.5q-8 -2 -17 -3t-17 -2q-10 -2 -25 -3t-20 -9t-7 -18.5t-2 -19.5
q0 -5 1 -19.5t1.5 -33.5t1 -39.5t-0.5 -37.5q0 -5 -4.5 -11.5t-12.5 -8.5q-9 -2 -16 2.5t-12 12.5q-2 4 -2.5 22t-0.5 39t0.5 39.5t-0.5 23.5q0 8 -2 18.5t-7 17.5q-5 5 -17 5t-24 -1.5t-22 -3.5t-11 -1z" />
    <glyph glyph-name="quoteleft" unicode="&#x2018;" horiz-adv-x="109" 
d="M16 612q-5 13 -3.5 23.5t6.5 19.5t12 17l14 16q4 7 16 17q4 2 8.5 3.5t9.5 -0.5q4 -2 2 -6t-6.5 -8.5t-9 -8.5t-5.5 -6q-4 -4 -7.5 -9.5t-3.5 -10.5q0 -8 12 -13q8 -6 13 -16.5t1 -21.5q-4 -9 -13 -18t-20 -7t-16.5 10.5t-9.5 18.5z" />
    <glyph glyph-name="quoteright" unicode="&#x2019;" horiz-adv-x="109" 
d="M79 685q5 -14 3.5 -24.5t-6.5 -19.5t-12 -16.5t-14 -15.5q-4 -5 -7.5 -9t-7.5 -8q-5 -2 -9 -3.5t-9 0.5q-4 2 -2.5 6t5.5 8.5t8.5 8.5t6.5 6q3 3 7.5 9t4.5 11q0 6 -4 8.5t-8 5.5q-9 5 -14.5 15.5t-0.5 20.5q5 9 13.5 19t19.5 8t16.5 -11.5t9.5 -18.5z" />
    <glyph glyph-name="quotedblleft" unicode="&#x201c;" horiz-adv-x="191" 
d="M75 688q3 -2 1.5 -5.5t-5.5 -7l-8 -7t-5 -4.5q-2 -4 -6 -8.5t-4 -9.5t3.5 -7.5t6.5 -4.5q8 -5 12.5 -14.5t0.5 -18.5q-3 -8 -11 -16.5t-18 -6.5t-14.5 9.5t-8.5 16.5q-8 23 2.5 38t22.5 29q4 4 7 8t8 6q4 2 7.5 3.5t8.5 -0.5zM124 640q9 -5 14.5 -16t0.5 -20t-13.5 -19
t-19.5 -8t-16.5 11t-9.5 19q-5 13 -3.5 23.5t6.5 19t12 16.5t14 17q3 4 6.5 8.5t8.5 8.5q5 2 9 3.5t9 -0.5q4 -2 2.5 -6t-6 -8.5t-9 -8.5t-5.5 -6q-3 -3 -7.5 -9t-4.5 -11q0 -6 4 -8.5t8 -5.5z" />
    <glyph glyph-name="quotedblright" unicode="&#x201d;" horiz-adv-x="191" 
d="M148 695q8 -23 -2.5 -38.5t-22.5 -28.5q-6 -9 -14 -15q-4 -2 -7.5 -3.5t-8.5 0.5q-3 2 -1.5 5.5t5 7.5t7.5 7.5t5 5.5q3 3 7 8t4 9q-1 6 -4.5 8t-6.5 4q-8 5 -12.5 14.5t0.5 18.5q2 8 10 16.5t19 6.5q10 -2 14.5 -10t7.5 -16zM62 721q11 -2 16 -10.5t9 -17.5
q5 -14 3.5 -24.5t-6.5 -19.5t-12 -17t-13 -16q-4 -5 -7.5 -9t-8.5 -7t-9 -4.5t-9 1.5q-4 1 -2 5t6 8.5t8.5 8.5t5.5 6q4 4 8 9.5t4 11.5q0 5 -3.5 7.5t-8.5 4.5q-9 6 -14 16.5t-1 21.5q5 9 14 18t20 7z" />
    <glyph glyph-name="Euro" unicode="&#x20ac;" horiz-adv-x="285" 
d="M205 236q8 -1 8.5 -10.5t-8.5 -11.5q-2 0 -15 -0.5t-30 -1t-34.5 -1.5t-28.5 -2q-8 0 -10.5 -4.5t-2.5 -11t2 -13t4 -10.5q6 -18 20 -29t31.5 -15.5t36.5 -3.5t34 6q8 2 15.5 5.5t12.5 -3.5q4 -5 2 -9t-6.5 -7t-9 -5t-6.5 -3q-18 -6 -42 -7t-47.5 3.5t-43.5 14.5t-32 28
q-9 12 -14 27t-17 25q-5 4 -11 5.5t-5 9.5q2 6 8.5 10t11.5 9q9 12 13.5 28t13.5 30q20 30 53 47q14 6 29.5 10t30.5 2q7 -1 18.5 -2.5t23 -4.5t18.5 -8t5 -13t-7 -9.5t-11 0t-11.5 4.5t-8.5 4q-20 7 -38 1t-32 -22q-3 -3 -10.5 -13t-13.5 -21t-7 -20t9 -9h28.5t32 0.5
t27.5 0.5h14z" />
    <glyph glyph-name="controlBS" horiz-adv-x="0" 
 />
  </font>
</defs>
</svg>
